Ссылка на приватное зеркало нашего сайта всего за 1$. Внимание количество ограничено!!!

2 сезон

iTunes

1 сезон

1

iTunes

iTunes

iTunes

1 сезон

RePack

30

ИГРА 18+

pack

ВАЖНО

!!Акция!!

Alien_RageХит недели

RePack

MK11
pack

Забери бонус

RePack

jed

!!Акция!!

Alien_Rage

RePack

fifa19

RePack

Assassins Creed: Odyssey

RePack

NEED FOR SPEED™ PAYBACK

4 сезон

9 сезон

Бесстыжие 9 сезон

Все сериалы

все сериалы на PB.wtf

RePack

FAR CRY 5
  

Арена для убийства / Серии 1-4 из 4 (Дмитрий Аверин (II)) [2018, Детектив, криминал, мелодрама, WEB-DLRip] pb.wtf

Арена для убийства через торрент pb.wtf

Размер: 2.35 GB | Добавлен: 2 года 7 мес. назад | Торрент скачан:189 раз
Скачать  

17-03-2018 20:40 Арена для убийства Скачать торрент  

Арена для убийстваГод выпуска: 2018
Страна: Россия
Жанр: Детектив, криминал, мелодрама
Продолжительность: 4 x ~ 00:45:00
Субтитры: отсутствуют

Режиссер: Дмитрий Аверин (II)



В ролях:

Алиса Лозовская, Татьяна Чердынцева, Евгений Сидихин, Игорь Лепихин, Артём Карасев, Ян Цапник, Данила Воропаев, Ольга Гордийчук, Игорь Ботвин, Юрий Орлов (II), Роман Жилкин, Леандра Кудряшова, Анастасия Квитко, Юлия Ваганова, Дарья Пельц, Макар Кусакин

Описание:

На бывшую детдомовку, а ныне юную воздушную гимнастку Полину сваливается неожиданное богатство – таинственный поклонник ее таланта оставляет ей в наследство один из своих загородных домов. Подарок не приносит счастья – Полина теряет лучшую подругу, иллюзионистку Аглаю: жених Аглаи, красавец-силач Герман, как и многие прочие, начинает ухлестывать за новоиспеченной «принцессой цирка». Со зла Полина дает согласие выйти за Германа замуж. Но накануне торжества его находят убитым, а Аглаю арестовывают по подозрению в убийстве...

Качество: WEB-DLRip
Формат: AVI

Видео: XviD, ~ 1700 Кбит/с, 720x400
Аудио: АС3, 2 ch, 192 Кбит/с
скриншот   скриншот   скриншот  

Общее
Полное имя : D:\Арена для убийства.2017.WEB-DLRip.Files-x\01.Арена для убийства.2017.WEB-DLRip.Files-x.avi
Формат : AVI
Формат/Информация : Audio Video Interleave
Размер файла : 601 Мбайт
Продолжительность : 46 м. 20 с.
Общий поток : 1814 Кбит/сек
Программа кодирования : VirtualDubMod 1.5.10.3 | www.virtualdub-fr.org || (build 2550/release)
Библиотека кодирования : VirtualDubMod build 2550/release

Видео
Идентификатор : 0
Формат : MPEG-4 Visual
Профиль формата : Advanced Simple@L5
Параметр BVOP формата : 1
Параметр QPel формата : Нет
Параметр GMC формата : Без точки перехода
Параметр матрицы формата : Выборочная
Идентификатор кодека : XVID
Идентификатор кодека/Подсказка : XviD
Продолжительность : 46 м. 20 с.
Битрейт : 1613 Кбит/сек
Ширина : 720 пикселей
Высота : 400 пикселей
Соотношение сторон : 16:9
Частота кадров : 24,000 кадра/сек
Цветовое пространство : YUV
Субдискретизация насыщенности : 4:2:0
Битовая глубина : 8 бит
Тип развёртки : Прогрессивная
Метод сжатия : С потерями
Бит/(Пиксели*Кадры) : 0.233
Размер потока : 535 Мбайт (89%)
Библиотека кодирования : XviD 73

Аудио
Идентификатор : 1
Формат : AC-3
Формат/Информация : Audio Coding 3
Расширение режима : CM (complete main)
Параметр Endianness формата : Big
Идентификатор кодека : 2000
Продолжительность : 46 м. 20 с.
Вид битрейта : Постоянный
Битрейт : 192 Кбит/сек
Каналы : 2 канала
Расположение каналов : Front: L R
Частота : 48,0 КГц
Частота кадров : 31,250 кадров/сек (1536 spf)
Метод сжатия : С потерями
Размер потока : 63,6 Мбайт (11%)
Выравнивание : Разделение по промежуткам
Продолжительность промежутка : 42 мс. (1,00 видеокадр)
Время предзагрузки промежутка : 500 мс.

pb.wtf



Скачать Арена для убийства через торрент http://pic1.kartinco.top/images/11/wkok2.jpg Скачать фильм Арена для убийства через торрент бесплантно в хорошем качестве Описание: На бывшую детдомовку, а ныне юную воздушную гимнастку Полину сваливается неожиданное богатство – таинственный поклонник ее ... 10 10 6
Торрент: Зарегистрирован [2018-03-17 20:40] · скачан: 189 раз
Статус: √ проверено
Размер: 2.35 GB
Как cкачать? Как скачать Арена для убийства через торрент | qTorrent

% Раздел Тема Автор DL S | L
Наши сериалы [ 9.1 GB ] Арена для убийства / Серии 1-4 из 4 [2018 HDTV 1080i] bober100 Скачать
1 | 0
Наши сериалы [ 2.17 GB ] Арена для убийства / Серии: 1-4 из 4 [2017 SATRip-AVC] aleksan55 Скачать
1 | 0
Наши сериалы [ 2.47 GB ] Арена для убийства / Серии 1-4 из 4 ) [2018 SATRip] bober100 Скачать
1 | 0

28-11-2019 20:33  

Отключить всю рекламу на сайте

    Дорогой пользователь! Огромная просьба, поблагодарите релизера, оцените раздачу и оставьте свои комментарий, если Вы скачали Арена для убийства через торрент бесплатно! Внесите свою лепту в развитие PiratBit!
    Комментировать посты могут только пользователи прошедшие не сложную регистрацию
    Показать сообщения:    

    Арена для убийства через торрент
    Скачать бесплатно Арена для убийства
    Арена для убийства скачать торрент
    Арена для убийства смотреть онлайн
    Cкачать фильм Арена для убийства бесплатно
    Арена для убийства скачать торрент в хорошем качестве
    Арена для убийства смотреть онлайн бесплатно в хорошем качестве


    Вы не можете начинать темы
    Вы не можете отвечать на сообщения
    Вы не можете редактировать свои сообщения
    Вы не можете удалять свои сообщения
    Вы не можете голосовать в опросах
    Вы не можете прикреплять файлы к сообщениям
    Вы можете скачивать файлы