Ссылка на приватное зеркало нашего сайта всего за 1$. Внимание количество ограничено!!!

2 сезон

iTunes

1 сезон

1

2 сезон

2 сезон

iTunes

1 сезон

RePack

30

Новинка

ВАЖНО

ИГРА 18+

pack

RePack

MK11
pack

Забери бонус

RePack

jed

!!Акция!!

Alien_Rage

RePack

fifa19

RePack

Assassins Creed: Odyssey

RePack

NEED FOR SPEED™ PAYBACK

4 сезон

9 сезон

Бесстыжие 9 сезон

Все сериалы

все сериалы на PB.wtf

RePack

FAR CRY 5
  

Завучи / Viсе Principals / Сезон: 2 / Серии: 1-9 из 9 (Дэвид Гордон Грин) [2017, комедия, WEB-DL 720p] VO [Кураж-Бамбей] pb.wtf

Завучи через торрент pb.wtf

Размер: 7.47 GB | Добавлен: 2 года 8 мес. назад | Торрент скачан:46 раз
Скачать  

17-03-2018 21:34 Завучи Скачать торрент  

Завучи / Viсе Principals

Информация о фильме:

Название: Завучи
Оригинальное название: Viсе Principals
Год выпуска: 2017 (2 сезон)
Страна: США / Home Box Office (HBO), Rough House Pictures
Жанр: комедия
Продолжительность: ~ 00:30:00 серия
Перевод: Профессиональный (одноголосый) | Кураж-Бамбей
Субтитры: Русские, английские
✦ Примечание: Без рекламы!

Режиссер: Дэвид Гордон Грин

rating

В ролях:

Джорджия Кинг, Джеймс Алком, Уолтон Гоггинс, Кимберли Хеберт Грегори, Дэнни МакБрайд, Эди Паттерсон, Сьюзэн Парк, Бизи Филиппс, Дженнифер Гатти и др.

Описание:

Черная комедия про двух истеричных завучей средней школы, которые по иронии судьбы отвечают за дисциплину и учебный план. После того, как директор уходит на пенсию, завучи затевают эпическую борьбу за трон.

Информация о файле:

Качество: WEB-DL 720p
Формат: MKV
Видео кодек: H.264
Аудио кодек: AC3

Видео: ~ 3000 kbps, 1280x720 (16:9), 23.976 fps
Аудио#1 RUS: AC3, 48 KHz, 2 ch, 192 kbps
Аудио#2 ENG: AC3, 48 KHz, 6 ch, 640 kbps


Озвучание: Денис Колесников aka Кураж-Бамбей

Работа со звуком: Khoren, 761OPiter

Синхронизация субтитров: Khoren

Работа над релизом: 761OPiter

скриншот   скриншот   скриншот   скриншот  

Общее
Уникальный идентификатор : 227100577428181184538944735338999605777 (0xAAD9FAF1611D33DBAF405D77CFFC6A11)
Полное имя : D:\Viсе Principals (Season 02) 720p WEB-DL Kuraj.Bambey\Viсе.Principals.S02E01.720p.WEB-DL.Kuraj.Bambey.[by 761OPiter].mkv
Формат : Matroska
Версия формата : Version 2
Размер файла : 889 Мбайт
Продолжительность : 32 м. 42 с.
Режим общего битрейта : Переменный
Общий поток : 3797 Кбит/сек
Дата кодирования : UTC 2017-11-20 01:28:30
Программа кодирования : mkvmerge v5.4.0 ('Piper') built on Mar 10 2012 13:34:39
Библиотека кодирования : libebml v1.2.3 + libmatroska v1.3.0

Видео
Идентификатор : 1
Формат : AVC
Формат/Информация : Advanced Video Codec
Профиль формата : High@L3.1
Параметр CABAC формата : Да
Параметр RefFrames формата : 5 кадров
Режим смешивания : Header stripping
Идентификатор кодека : V_MPEG4/ISO/AVC
Продолжительность : 32 м. 42 с.
Вид битрейта : Переменный
Битрейт : 2890 Кбит/сек
Максимальный битрейт : 4500 Кбит/сек
Ширина : 1280 пикселей
Высота : 720 пикселей
Соотношение сторон : 16:9
Режим частоты кадров : Постоянный
Частота кадров : 23,976 (24000/1001) кадра/сек
Цветовое пространство : YUV
Субдискретизация насыщенности : 4:2:0
Битовая глубина : 8 бит
Тип развёртки : Прогрессивная
Бит/(Пиксели*Кадры) : 0.131
Размер потока : 676 Мбайт (76%)
Default : Да
Forced : Нет
Цветовой диапазон : Limited
Основные цвета : BT.709
Характеристики трансфера : BT.709
Коэффициенты матрицы : BT.709

Аудио #1
Идентификатор : 4
Формат : E-AC-3
Формат/Информация : Audio Coding 3
Параметр Endianness формата : Big
Режим смешивания : Header stripping
Идентификатор кодека : A_EAC3
Продолжительность : 32 м. 42 с.
Вид битрейта : Постоянный
Битрейт : 640 Кбит/сек
Каналы : 6 каналов
Расположение каналов : Front: L C R, Side: L R, LFE
Частота : 48,0 КГц
Частота кадров : 187,500 кадров/сек (256 spf)
Метод сжатия : С потерями
Задержка видео : 25 мс.
Размер потока : 150 Мбайт (17%)
Язык : English
Default : Нет
Forced : Нет

Аудио #2
Идентификатор : 6
Формат : AC-3
Формат/Информация : Audio Coding 3
Расширение режима : CM (complete main)
Параметр Endianness формата : Big
Режим смешивания : Header stripping
Идентификатор кодека : A_AC3
Продолжительность : 32 м. 42 с.
Вид битрейта : Постоянный
Битрейт : 192 Кбит/сек
Каналы : 2 канала
Расположение каналов : Front: L R
Частота : 48,0 КГц
Частота кадров : 31,250 кадров/сек (1536 spf)
Метод сжатия : С потерями
Размер потока : 44,9 Мбайт (5%)
Язык : Russian
Default : Да
Forced : Да

Текст #1
Идентификатор : 2
Формат : UTF-8
Идентификатор кодека : S_TEXT/UTF8
Идентификатор кодека/Информация : UTF-8 Plain Text
Язык : English
Default : Нет
Forced : Нет

Текст #2
Идентификатор : 3
Формат : UTF-8
Идентификатор кодека : S_TEXT/UTF8
Идентификатор кодека/Информация : UTF-8 Plain Text
Язык : Russian
Default : Да
Forced : Да

Текст #3
Идентификатор : 5
Формат : UTF-8
Идентификатор кодека : S_TEXT/UTF8
Идентификатор кодека/Информация : UTF-8 Plain Text
Язык : English
Default : Нет
Forced : Нет

pb.wtf



Скачать Завучи через торрент http://i77.fastpic.ru/big/2016/0718/12/d240bb5111d0b298e3bf32f2c6bfe212.png Скачать фильм Завучи через торрент бесплантно в хорошем качестве Описание: Черная комедия про двух истеричных завучей средней школы, которые по иронии судьбы отвечают за дисциплину и учебный план. После ... 10 10 2
Торрент: Зарегистрирован [2018-03-17 21:34] · скачан: 46 раз
Статус: √ проверено
Размер: 7.47 GB
Как cкачать? Как скачать Завучи через торрент | qTorrent

28-11-2019 20:33  

Отключить всю рекламу на сайте

06-05-2018 17:21 Завучи Скачать торрент  

звуковая дорожка на английскомpb.wtf



    Дорогой пользователь! Огромная просьба, поблагодарите релизера, оцените раздачу и оставьте свои комментарий, если Вы скачали Завучи через торрент бесплатно! Внесите свою лепту в развитие PiratBit!
    Комментировать посты могут только пользователи прошедшие не сложную регистрацию
    Показать сообщения:    

    Завучи через торрент
    Скачать бесплатно Завучи
    Завучи скачать торрент
    Завучи смотреть онлайн
    Cкачать фильм Завучи бесплатно
    Завучи скачать торрент в хорошем качестве
    Завучи смотреть онлайн бесплатно в хорошем качестве


    Вы не можете начинать темы
    Вы не можете отвечать на сообщения
    Вы не можете редактировать свои сообщения
    Вы не можете удалять свои сообщения
    Вы не можете голосовать в опросах
    Вы не можете прикреплять файлы к сообщениям
    Вы можете скачивать файлы