2 сезон

iTunes

MVO

1

2 сезон

iTunes

iTunes

1 сезон

RePack

30

Новинка

ВАЖНО

ИГРА 18+

pack

RePack

MK11
pack

Легкие деньги

RePack

jed

RePack

fifa19

RePack

RDR2

RePack

NEED FOR SPEED™ PAYBACK

4 сезон

9 сезон

Бесстыжие 9 сезон

Все сериалы

все сериалы на PB.wtf

RePack

FAR CRY 5

Anonymous, доброй ночи, мы не успеваем собрать деньги на оплату серверов за декабрь и январь, помогите нам пожалуйста в это трудное время. В качестве благодарности мы отключим Вам всю рекламу на сайте (укажите свой ник в строку Ваше имя)!

×
  
Magnet ссылка

И смех и грех / Coexister (Фабрис Эбуе) [2017, комедия, BDRip-AVC] DUB [iTunes] pb.wtf

И смех и грех через торрент pb.wtf

Размер: 1.35 GB | Добавлен: 2 года 9 мес. назад | Торрент скачан:189 раз
Скачать  

18-03-2018 06:45 И смех и грех Скачать торрент  

И смех и грех / CoexisterГод выпуска: 2017
Страна: Франция
Жанр: комедия
Продолжительность: 01:29:21
Перевод: Дублированный | iTunes
Субтитры: отсутствуют
Реклама: Отсутствует

Режиссер: Фабрис Эбуе

rating

В ролях:

Рамзи Бедиа, Фабрис Эбуе, Гийом де Тонкедек, Одри Лами, Джонатан Коэн, Матильда Сенье, Армель Чахби, Милен Буде, Мишель Друкер, Элизабет Дуда

Описание:

Чтобы спастись от увольнения, продюсер-неудачник должен найти ​группу, ​которая соберёт полный зал Олимпии. На него снисходит озарение, и он организует весьма оригинальный бойз-бэнд: католический священник, раввин и имам. Смогут ли разные представления о мире стать помехой на пути к вершине музыкального Олимпа?

Качество: BDRip-AVC
Формат: MKV

Видео: 1024x428 (2.40:1), 24,000 fps, x264 ~1 781 kbps avg, 0.168 bit/pixel
Аудио: 48 kHz, AC3 Dolby Digital, 3/2 (L,C,R,l,r) + LFE ch, ~384.00 kbps avg | RUS (iTunes)
скриншот   скриншот   скриншот   скриншот   скриншот   скриншот  

Общее
Уникальный идентификатор : 251457949977421532882507980207531954124 (0xBD2D0A20B51422998FF6259C76E70FCC)
Полное имя : E:OlLanDGroupCoexister.2017.BDRip(AVC).OlLanDGroup.mkv
Формат : Matroska
Версия формата : Version 2
Размер файла : 1,35 Гбайт
Продолжительность : 1 ч. 29 м.
Общий поток : 2166 Кбит/сек
Название фильма : Coexister.2017 #TorpedoUK#
Дата кодирования : UTC 2018-03-18 05:13:19
Программа кодирования : mkvmerge v7.8.0 ('River Man') 32bit built on Apr 3 2015 12:11:22
Библиотека кодирования : libebml v1.3.1 + libmatroska v1.4.2

Видео
Идентификатор : 1
Формат : AVC
Формат/Информация : Advanced Video Codec
Профиль формата : High@L4.1
Параметр CABAC формата : Да
Параметр ReFrames формата : 10 кадров
Идентификатор кодека : V_MPEG4/ISO/AVC
Продолжительность : 1 ч. 29 м.
Битрейт : 1781 Кбит/сек
Ширина : 1024 пикселя
Высота : 428 пикселей
Соотношение сторон : 2,40:1
Режим частоты кадров : Постоянный
Частота кадров : 24,000 кадра/сек
Цветовое пространство : YUV
Субдискретизация насыщенности : 4:2:0
Битовая глубина : 8 бит
Тип развёртки : Прогрессивная
Бит/(Пиксели*Кадры) : 0.169
Размер потока : 1,09 Гбайт (80%)
Библиотека кодирования : x264 core 146 r2538 121396c
Настройки программы : cabac=1 / ref=10 / deblock=1:-2:-3 / analyse=0x3:0x133 / me=umh / subme=11 / psy=1 / psy_rd=0.97:0.07 / mixed_ref=1 / me_range=48 / chroma_me=1 / trellis=2 / 8x8dct=1 / cqm=0 / deadzone=21,11 / fast_pskip=1 / chroma_qp_offset=-3 / threads=6 / lookahead_threads=1 / sliced_threads=0 / nr=0 / decimate=1 / interlaced=0 / bluray_compat=0 / constrained_intra=0 / bframes=10 / b_pyramid=2 / b_adapt=2 / b_bias=0 / direct=3 / weightb=1 / open_gop=0 / weightp=2 / keyint=240 / keyint_min=23 / scenecut=40 / intra_refresh=0 / rc_lookahead=40 / rc=2pass / mbtree=0 / bitrate=1781 / ratetol=1.0 / qcomp=0.60 / qpmin=0 / qpmax=69 / qpstep=4 / cplxblur=20.0 / qblur=0.5 / vbv_maxrate=50000 / vbv_bufsize=62500 / nal_hrd=none / filler=0 / ip_ratio=1.40 / pb_ratio=1.30 / aq=1:1.00
Язык : English
Default : Да
Forced : Нет

Аудио
Идентификатор : 2
Формат : AC-3
Формат/Информация : Audio Coding 3
Расширение режима : CM (complete main)
Параметр Endianness формата : Big
Идентификатор кодека : A_AC3
Продолжительность : 1 ч. 29 м.
Вид битрейта : Постоянный
Битрейт : 384 Кбит/сек
Каналы : 6 каналов
Расположение каналов : Front: L C R, Side: L R, LFE
Частота : 48,0 КГц
Частота кадров : 31,250 кадров/сек (1536 spf)
Битовая глубина : 16 бит
Метод сжатия : С потерями
Размер потока : 245 Мбайт (18%)
Заголовок : iTunes
Язык : Russian
Default : Да
Forced : Нет

Меню
00:00:00.000 : en:00:00:00.000
00:07:59.750 : en:00:07:59.750
00:15:27.208 : en:00:15:27.208
00:23:26.750 : en:00:23:26.750
00:30:39.000 : en:00:30:39.000
00:39:42.167 : en:00:39:42.167
00:45:39.000 : en:00:45:39.000
00:51:59.833 : en:00:51:59.833
00:59:44.875 : en:00:59:44.875
01:07:01.458 : en:01:07:01.458
01:15:01.750 : en:01:15:01.750
01:21:46.333 : en:01:21:46.333

pb.wtf



Скачать И смех и грех через торрент http://lostpix.com/img/2018-03/18/1cev8c9nogrohud26uigtolzr.jpg Скачать фильм И смех и грех через торрент бесплантно в хорошем качестве Описание: Чтобы спастись от увольнения, продюсер-неудачник должен найти ​группу, ​которая соберёт полный зал Олимпии. На него снисходит ... 8.9 10 8
Торрент: Зарегистрирован [2018-03-18 06:45] · скачан: 189 раз
Статус: √ проверено
Размер: 1.35 GB
Как cкачать? Как скачать И смех и грех через торрент | UTorrent

% Раздел Тема Автор DL S | L
Фильмы 2017 [DVDrip, WEB-DLRip, HDrip] (DUB, MVO) [ 1.42 GB ] И смех и грех / Coexister [2017 BDRip] - Twi7ter Скачать
1 | 0
D Фильмы 2017 [DVDrip, WEB-DLRip, HDrip] (DUB, MVO) [ 1.37 GB ] И смех и грех / Coexister [2017 HDRip ] oleg8 Скачать
1 | 0
T Фильмы [HD 720p, 1080p] (Хороший звук DUB, MVO) [ 4.61 GB ] И смех и грех / Coexister [2017 BDRip 720p] bober100 Скачать
1 | 0
Фильмы 2017 [DVDrip, WEB-DLRip, HDrip] (DUB, MVO) [ 746 MB ] И смех и грех / Coexister [2017 BDRip] bober100 Скачать
1 | 0
Фильмы 2017 [DVDrip, WEB-DLRip, HDrip] (DUB, MVO) [ 1.42 GB ] И смех и грех / Coexister [2017 BDRip] bober100 Скачать
1 | 0

28-11-2019 20:33  

Отключить всю рекламу на сайте

01-06-2018 17:39 И смех и грех Скачать торрент  

можн смотретьpb.wtf



28-07-2018 19:59 И смех и грех Скачать торрент  

не о чемpb.wtf



    Дорогой пользователь! Огромная просьба, поблагодарите релизера, оцените раздачу и оставьте свои комментарий, если Вы скачали И смех и грех через торрент бесплатно! Внесите свою лепту в развитие PiratBit!
    Комментировать посты могут только пользователи прошедшие не сложную регистрацию
    Показать сообщения:    

    И смех и грех через торрент
    Скачать бесплатно И смех и грех
    И смех и грех скачать торрент
    И смех и грех смотреть онлайн
    Cкачать фильм И смех и грех бесплатно
    И смех и грех скачать торрент в хорошем качестве
    И смех и грех смотреть онлайн бесплатно в хорошем качестве


    Вы не можете начинать темы
    Вы не можете отвечать на сообщения
    Вы не можете редактировать свои сообщения
    Вы не можете удалять свои сообщения
    Вы не можете голосовать в опросах
    Вы не можете прикреплять файлы к сообщениям
    Вы можете скачивать файлы