Ссылка на приватное зеркало нашего сайта всего за 1$. Внимание количество ограничено!!!

2 сезон

iTunes

1 сезон

1

2 сезон

2 сезон

iTunes

1 сезон

RePack

30

Ultimate

ВАЖНО

ИГРА 18+

pack

RePack

MK11
pack

Забери бонус

RePack

jed

!!Акция!!

Alien_Rage

RePack

fifa19

RePack

Assassins Creed: Odyssey

RePack

NEED FOR SPEED™ PAYBACK

4 сезон

9 сезон

Бесстыжие 9 сезон

Все сериалы

все сериалы на PB.wtf

RePack

FAR CRY 5
  

Хорошая борьба / Правое дело / The Good Fight / Сезон: 2 / Серии: 1-13 из 13 (Брук Кеннеди) [2018, Драма, WEB-DLRip] MVO [NewStudio] pb.wtf

Хорошая борьба через торрент pb.wtf

Размер: 8.89 GB | Добавлен: 2 года назад | Торрент скачан:23 раза
Скачать  

18-03-2018 07:01 Хорошая борьба Скачать торрент  

Хорошая борьба | Правое дело | The Good FightГод выпуска: 2018
Страна: США
Жанр: Драма
Продолжительность: 00:51:00
Перевод: Профессиональный многоголосый | NewStudio
Субтитры: отсутствуют

Режиссер: Брук Кеннеди

rating

В ролях:

Кристин Барански, Джастин Барта, Каш Джамбо, Роуз Лесли, Делрой Линдо, Сара Стил, Тэйзел, Скотт Брюс, Апрелла, Кори Котт

Описание:

Спин-офф сериала "Хорошая Жена", в котором ключевыми героями станут Диана Локхарт и Лукка Квин, которых мы знаем ещё со времён "Жены". Так же нас ждёт встреча с новыми, не менее интересными персонажами, и возвращение старых знакомых. Мы вновь совершим погружение в мир американской и мировой юриспруденции, политики, корпоративных интриг и человеческих страстей. Всё то, за что вы любили "Хорошую Жену" присутствует и в "Хорошей Борьбе", плюс много нового, свежего, увлекательного.

Качество: WEB-DLRip
Формат: AVI

Видео: ~1630 kb/s, 720x368
Аудио#1: Русский: MP3, 128 kb/s
Аудио#2: английский: MP3, 128 kb/s
скриншот   скриншот   скриншот   скриншот   скриншот   скриншот  

Общее
Полное имя : D:\The Good Fight ( (Season 02) NewStudio\The.Good.Fight.s02e01.WEBDLRip.NewStudio.TV.avi
Формат : AVI
Формат/Информация : Audio Video Interleave
Размер файла : 700 Мбайт
Продолжительность : 51 м. 28 с.
Общий поток : 1902 Кбит/сек
Программа кодирования : VirtualDubMod 1.5.10.2 (build 2540/release)
Библиотека кодирования : VirtualDubMod build 2540/release

Видео
Идентификатор : 0
Формат : MPEG-4 Visual
Профиль формата : Advanced Simple@L5
Параметр BVOP формата : 2
Параметр QPel формата : Да
Параметр GMC формата : Без точки перехода
Параметр матрицы формата : Default (MPEG)
Режим смешивания : Сжатый битовый поток
Идентификатор кодека : XVID
Идентификатор кодека/Подсказка : XviD
Продолжительность : 51 м. 28 с.
Битрейт : 1632 Кбит/сек
Ширина : 720 пикселей
Высота : 368 пикселей
Соотношение сторон : 1,957
Частота кадров : 23,976 (23976/1000) кадра/сек
Цветовое пространство : YUV
Субдискретизация насыщенности : 4:2:0
Битовая глубина : 8 бит
Тип развёртки : Прогрессивная
Метод сжатия : С потерями
Бит/(Пиксели*Кадры) : 0.257
Размер потока : 601 Мбайт (86%)
Библиотека кодирования : XviD 67

Аудио #1
Идентификатор : 1
Формат : MPEG Audio
Версия формата : Version 1
Профиль формата : Layer 3
Режим : Joint stereo
Расширение режима : MS Stereo
Идентификатор кодека : 55
Идентификатор кодека/Подсказка : MP3
Продолжительность : 51 м. 28 с.
Вид битрейта : Постоянный
Битрейт : 128 Кбит/сек
Каналы : 2 канала
Частота : 48,0 КГц
Метод сжатия : С потерями
Размер потока : 47,1 Мбайт (7%)
Выравнивание : Соединение по промежуткам
Продолжительность промежутка : 42 мс. (1,00 видеокадр)
Время предзагрузки промежутка : 504 мс.

Аудио #2
Идентификатор : 2
Формат : MPEG Audio
Версия формата : Version 1
Профиль формата : Layer 3
Режим : Joint stereo
Идентификатор кодека : 55
Идентификатор кодека/Подсказка : MP3
Продолжительность : 51 м. 28 с.
Вид битрейта : Постоянный
Битрейт : 128 Кбит/сек
Каналы : 2 канала
Частота : 48,0 КГц
Метод сжатия : С потерями
Размер потока : 47,1 Мбайт (7%)
Выравнивание : Соединение по промежуткам
Продолжительность промежутка : 42 мс. (1,00 видеокадр)
Время предзагрузки промежутка : 504 мс.
Библиотека кодирования : LAME3.99r
Настройки программы : -m j -V 4 -q 2 -lowpass 17 -b 128

pb.wtf



Скачать Хорошая борьба через торрент http://i102.fastpic.ru/big/2018/0210/a6/9ba18ae847f0668333394d054f5608a6.png Скачать фильм Хорошая борьба через торрент бесплантно в хорошем качестве Описание: Спин-офф сериала "Хорошая Жена", в котором ключевыми героями станут Диана Локхарт и Лукка Квин, которых мы знаем ещё со времён ... 8.7 10 3
Info! Серебряная раздача, засчитывается только 50% скачанного.
Торрент: Зарегистрирован [2018-11-21 06:29] · скачан: 23 раз
Статус: √ проверено
Размер: 8.89 GB
Как cкачать? Как скачать Хорошая борьба через торрент | qTorrent

% Раздел Тема Автор DL S | L
Зарубежные сериалы [ 37.15 GB ] Хорошая борьба / Правое дело / The Good Fight / Сезон: 2 / Серии: 1-13 из 13 [2018 WEBRip 1080p] MVO [TVShows] bober100 Скачать
1 | 0
Зарубежные сериалы [ 7.63 GB ] Хорошая борьба / Правое дело / The Good Fight / Сезон: 2 / Серии: 1-13 из 13 [2018 WEBRip] MVO [Jaskier] bober100 Скачать
1 | 0
Зарубежные сериалы [ 22.43 GB ] Хорошая борьба / Правое дело / The Good Fight / Сезон: 2 / Серии: 1-13 из 13 [2018 WEBRip 720p] MVO [Jaskier] bober100 Скачать
1 | 0

28-11-2019 20:33  

Отключить всю рекламу на сайте

    Дорогой пользователь! Огромная просьба, поблагодарите релизера, оцените раздачу и оставьте свои комментарий, если Вы скачали Хорошая борьба через торрент бесплатно! Внесите свою лепту в развитие PiratBit!
    Комментировать посты могут только пользователи прошедшие не сложную регистрацию
    Показать сообщения:    

    Хорошая борьба через торрент
    Скачать бесплатно Хорошая борьба
    Хорошая борьба скачать торрент
    Хорошая борьба смотреть онлайн
    Cкачать фильм Хорошая борьба бесплатно
    Хорошая борьба скачать торрент в хорошем качестве
    Хорошая борьба смотреть онлайн бесплатно в хорошем качестве


    Вы не можете начинать темы
    Вы не можете отвечать на сообщения
    Вы не можете редактировать свои сообщения
    Вы не можете удалять свои сообщения
    Вы не можете голосовать в опросах
    Вы не можете прикреплять файлы к сообщениям
    Вы можете скачивать файлы