2 сезон

iTunes

MVO

1

2 сезон

iTunes

iTunes

1 сезон

RePack

30

Новинка

ВАЖНО

ИГРА 18+

pack

RePack

MK11
pack

Легкие деньги

RePack

jed

RePack

fifa19

RePack

RDR2

RePack

NEED FOR SPEED™ PAYBACK

4 сезон

9 сезон

Бесстыжие 9 сезон

Все сериалы

все сериалы на PB.wtf

RePack

FAR CRY 5

Anonymous, доброй ночи, мы не успеваем собрать деньги на оплату серверов за декабрь и январь, помогите нам пожалуйста в это трудное время. В качестве благодарности мы отключим Вам всю рекламу на сайте (укажите свой ник в строку Ваше имя)!

×
  
Magnet ссылка

И смех и грех / Coexister (Фабрис Эбуе) [2017 г., Комедия, HDRip, Дубляж iTunes] pb.wtf

И смех и грех через торрент pb.wtf

Размер: 1.37 GB | Добавлен: 2 года 9 мес. назад | Торрент скачан:17 раз
Скачать  

18-03-2018 08:01 И смех и грех Скачать торрент  

И смех и грех / Coexister
Год выпуска: 2017
Страна: Франция
Жанр: Комедия
Продолжительность: 01:29:21
Перевод: Дубляж iTunes
Субтитры: отсутствуют

Режиссер: Фабрис Эбуе

rating

В ролях: Рамзи Бедиа, Фабрис Эбуе, Гийом де Тонкедек, Одри Лами, Джонатан Коэн, Матильда Сенье, Армель Чахби, Милен Буде, Мишель Друкер, Элизабет Дуда

Описание: Чтобы спастись от увольнения, продюсер-неудачник должен найти группу, которая соберёт полный зал Олимпии. На него снисходит озарение, и он организует весьма оригинальный бойз-бэнд: католический священник, раввин и имам. Смогут ли разные представления о мире стать помехой на пути к вершине музыкального Олимпа?

Качество: HDRip
Формат: AVI
Видео кодек: XviD
Аудио кодек: AC3
Видео: Xvid, 720x304, ~1797 Kbps
Аудио#1: AC3, 6 ch, 384 Kbps
скриншот   скриншот   скриншот   скриншот  

General
Complete name : /media/win/TORRENT/UPLOAD_TORRENTS/Coexister.2017.D.HDRip.avi
Format : AVI
Format/Info : Audio Video Interleave
File size : 1.37 GiB
Duration : 1 h 29 min
Overall bit rate : 2 190 kb/s
Writing application : VirtualDubMod 1.5.10.2 (build 2540/release)
Writing library : VirtualDubMod build 2540/release

Video
ID : 0
Format : MPEG-4 Visual
Format profile : Advanced Simple@L5
Format settings : BVOP2
Format settings, BVOP : 2
Format settings, QPel : No
Format settings, GMC : No warppoints
Format settings, Matrix : Default (MPEG)
Codec ID : XVID
Codec ID/Hint : XviD
Duration : 1 h 29 min
Bit rate : 1 797 kb/s
Width : 720 pixels
Height : 304 pixels
Display aspect ratio : 2.35:1
Frame rate : 24.000 FPS
Color space : YUV
Chroma subsampling : 4:2:0
Bit depth : 8 bits
Scan type : Progressive
Compression mode : Lossy
Bits/(Pixel*Frame) : 0.342
Stream size : 1.12 GiB (82%)
Writing library : XviD 1.2.1 (UTC 2008-12-04)

Audio
ID : 1
Format : AC-3
Format/Info : Audio Coding 3
Codec ID : 2000
Duration : 1 h 29 min
Bit rate mode : Constant
Bit rate : 384 kb/s
Channel(s) : 6 channels
Channel positions : Front: L C R, Side: L R, LFE
Sampling rate : 48.0 kHz
Frame rate : 31.250 FPS (1536 SPF)
Bit depth : 16 bits
Compression mode : Lossy
Stream size : 245 MiB (18%)
Alignment : Split accross interleaves
Interleave, duration : 42 ms (1.00 video frame)
Interleave, preload duration : 500 ms
Service kind : Complete Main

pb.wtf



Скачать И смех и грех через торрент http://i99.fastpic.ru/big/2018/0318/3a/3843362494abf39bdae147a7058f333a.jpg Скачать фильм И смех и грех через торрент бесплантно в хорошем качестве Описание: Чтобы спастись от увольнения, продюсер-неудачник должен найти группу, которая соберёт полный зал Олимпии. На него снисходит ... 7.8 10 4
Торрент: Зарегистрирован [2018-03-18 08:01] · скачан: 17 раз
Статус: D повтор
Размер: 1.37 GB
Как cкачать? Как скачать И смех и грех через торрент | UTorrent

% Раздел Тема Автор DL S | L
Фильмы 2017 [DVDrip, WEB-DLRip, HDrip] (DUB, MVO) [ 1.35 GB ] И смех и грех / Coexister [2017 BDRip-AVC] bober100 Скачать
1 | 0
Фильмы 2017 [DVDrip, WEB-DLRip, HDrip] (DUB, MVO) [ 1.42 GB ] И смех и грех / Coexister [2017 BDRip] - Twi7ter Скачать
1 | 0
T Фильмы [HD 720p, 1080p] (Хороший звук DUB, MVO) [ 4.61 GB ] И смех и грех / Coexister [2017 BDRip 720p] bober100 Скачать
1 | 0
Фильмы 2017 [DVDrip, WEB-DLRip, HDrip] (DUB, MVO) [ 746 MB ] И смех и грех / Coexister [2017 BDRip] bober100 Скачать
1 | 0
Фильмы 2017 [DVDrip, WEB-DLRip, HDrip] (DUB, MVO) [ 1.42 GB ] И смех и грех / Coexister [2017 BDRip] bober100 Скачать
1 | 0

28-11-2019 20:33  

Отключить всю рекламу на сайте

18-03-2018 09:39 И смех и грех Скачать торрент  

    Дорогой пользователь! Огромная просьба, поблагодарите релизера, оцените раздачу и оставьте свои комментарий, если Вы скачали И смех и грех через торрент бесплатно! Внесите свою лепту в развитие PiratBit!
    Комментировать посты могут только пользователи прошедшие не сложную регистрацию
    Показать сообщения:    

    И смех и грех через торрент
    Скачать бесплатно И смех и грех
    И смех и грех скачать торрент
    И смех и грех смотреть онлайн
    Cкачать фильм И смех и грех бесплатно
    И смех и грех скачать торрент в хорошем качестве
    И смех и грех смотреть онлайн бесплатно в хорошем качестве


    Вы не можете начинать темы
    Вы не можете отвечать на сообщения
    Вы не можете редактировать свои сообщения
    Вы не можете удалять свои сообщения
    Вы не можете голосовать в опросах
    Вы не можете прикреплять файлы к сообщениям
    Вы можете скачивать файлы