Marvel's Avengers Deluxe Edition (супер цена) 159р. Внимание количество ограничено!!!

2 сезон

iTunes

iTunes

1

iTunes

iTunes

iTunes

WEBRip

iTunes

30
pack

Новость дня

ВАЖНО

!!Акция!!

Alien_RageХит недели

RePack

Horizon Zero Dawn

ИГРА 18+

pack

RePack

jed

!!Акция!!

Alien_Rage

RePack

fifa19

RePack

Assassins Creed: Odyssey

RePack

NEED FOR SPEED™ PAYBACK

4 сезон

9 сезон

Бесстыжие 9 сезон

Все сериалы

все сериалы на PB.wtf

RePack

FAR CRY 5
  

Ты, я и он / You, Me and Him (Дэйзи Эйткенс) [2018, комедия, WEB-DL 1080p] MVO [Jaskier] pb.wtf

Ты, я и он через торрент pb.wtf

Размер: 6.73 GB | Добавлен: 2 года 6 мес. назад | Торрент скачан:53 раза
Скачать  

18-03-2018 08:04 Ты, я и он Скачать торрент  

Ты, я и он / You, Me and HimГод выпуска: 2018
Страна: Великобритания
Жанр: комедия
Продолжительность: 01:38:01
Перевод: Профессиональный (многоголосый) | Jaskier
Субтитры: отсутствуют

Режиссер: Дэйзи Эйткенс

rating

В ролях:

Фэй Марсей, Дэвид Теннант, Люси Панч, Сара Пэриш, Дэвид Уорнер, Сэлли Филлипс, Джемма Джонс, Нина Сосанья, Саймон Бёрд, Дон Уоррингтон

Описание:

Классическая романтическая комедия по всем законам жанра. Любящая лесбийская пара очень счастлива, несмотря на большую разницу в возрасте, но когда встает вопрос о беременности, и они знакомятся с новым соседом, всё сильно запутывается, и трио оказывается в очень непростой ситуации.

Качество: WEB-DL 1080p
Формат: MKV

Видео: MPEG-4 AVC, 8548 Кбит/с, 1920x1040
Аудио#1: Русский (AC3, 6 ch, 640 Кбит/с)
Аудио#2: английский (AC3, 6 ch, 640 Кбит/с)
скриншот  скриншот  скриншот  

Общее
Уникальный идентификатор : 18159831023880999606894407920455169015 (0xDA974CBD7B15C6A4FF42BBFD81EB3F7)
Полное имя : D:\You.Me.and.Him.2017.WEBRip.1080p.Jaskier.mkv
Формат : Matroska
Версия формата : Version 4 / Version 2
Размер файла : 6,73 Гбайт
Продолжительность : 1 ч. 38 м.
Режим общего битрейта : Переменный
Общий поток : 9830 Кбит/сек
Дата кодирования : UTC 2018-03-17 17:46:26
Программа кодирования : mkvmerge v19.0.0 ('Brave Captain') 64-bit
Библиотека кодирования : libebml v1.3.5 + libmatroska v1.4.8

Видео
Идентификатор : 1
Формат : AVC
Формат/Информация : Advanced Video Codec
Профиль формата : High@L4
Параметр CABAC формата : Да
Параметр RefFrames формата : 4 кадра
Идентификатор кодека : V_MPEG4/ISO/AVC
Продолжительность : 1 ч. 38 м.
Вид битрейта : Переменный
Битрейт : 8548 Кбит/сек
Максимальный битрейт : 15,0 Мбит/сек
Ширина : 1920 пикселей
Высота : 1040 пикселей
Соотношение сторон : 1,85:1
Режим частоты кадров : Постоянный
Частота кадров : 23,976 (24000/1001) кадра/сек
Цветовое пространство : YUV
Субдискретизация насыщенности : 4:2:0
Битовая глубина : 8 бит
Тип развёртки : Прогрессивная
Бит/(Пиксели*Кадры) : 0.174
Размер потока : 5,72 Гбайт (85%)
Язык : English
Default : Да
Forced : Нет
Цветовой диапазон : Limited
Основные цвета : BT.709
Характеристики трансфера : BT.709
Коэффициенты матрицы : BT.709

Аудио #1
Идентификатор : 2
Формат : AC-3
Формат/Информация : Audio Coding 3
Расширение режима : CM (complete main)
Параметр Endianness формата : Big
Идентификатор кодека : A_AC3
Продолжительность : 1 ч. 38 м.
Вид битрейта : Постоянный
Битрейт : 640 Кбит/сек
Каналы : 6 каналов
Расположение каналов : Front: L C R, Side: L R, LFE
Частота : 48,0 КГц
Частота кадров : 31,250 кадров/сек (1536 spf)
Метод сжатия : С потерями
Размер потока : 449 Мбайт (7%)
Заголовок : Jaskier
Язык : Russian
Default : Да
Forced : Нет

Аудио #2
Идентификатор : 3
Формат : AC-3
Формат/Информация : Audio Coding 3
Расширение режима : CM (complete main)
Параметр Endianness формата : Big
Идентификатор кодека : A_AC3
Продолжительность : 1 ч. 38 м.
Вид битрейта : Постоянный
Битрейт : 640 Кбит/сек
Каналы : 6 каналов
Расположение каналов : Front: L C R, Side: L R, LFE
Частота : 48,0 КГц
Частота кадров : 31,250 кадров/сек (1536 spf)
Метод сжатия : С потерями
Размер потока : 449 Мбайт (7%)
Язык : English
Default : Нет
Forced : Нет

pb.wtf
!bober100 писал(а):

Реклама: Присутствует голосовая.



Скачать Ты, я и он через торрент http://img12.lostpic.net/2018/03/18/f3977a9c27c1b4c93a1ec5298d225305.jpg Скачать фильм Ты, я и он через торрент бесплантно в хорошем качестве Описание: Классическая романтическая комедия по всем законам жанра. Любящая лесбийская пара очень счастлива, несмотря на большую разницу в ... 10 10 2
Торрент: Зарегистрирован [2018-03-18 08:04] · скачан: 53 раз
Статус: T временная
Размер: 6.73 GB
Как cкачать? Как скачать Ты, я и он через торрент | qTorrent

% Раздел Тема Автор DL S | L
T Фильмы (мультфильмы) cо спонсором показа (Новинки AVI/MKV) [ 1.37 GB ] Ты я и он / You Me and Him [2018 WEB-DLRip] MVO [Jaskier] bober100 Скачать
1 | 0

28-11-2019 20:33  

Отключить всю рекламу на сайте

    Дорогой пользователь! Огромная просьба, поблагодарите релизера, оцените раздачу и оставьте свои комментарий, если Вы скачали Ты, я и он через торрент бесплатно! Внесите свою лепту в развитие PiratBit!
    Комментировать посты могут только пользователи прошедшие не сложную регистрацию
    Показать сообщения:    

    Ты, я и он через торрент
    Скачать бесплатно Ты, я и он
    Ты, я и он скачать торрент
    Ты, я и он смотреть онлайн
    Cкачать фильм Ты, я и он бесплатно
    Ты, я и он скачать торрент в хорошем качестве
    Ты, я и он смотреть онлайн бесплатно в хорошем качестве


    Вы не можете начинать темы
    Вы не можете отвечать на сообщения
    Вы не можете редактировать свои сообщения
    Вы не можете удалять свои сообщения
    Вы не можете голосовать в опросах
    Вы не можете прикреплять файлы к сообщениям
    Вы можете скачивать файлы