Ссылка на приватное зеркало нашего сайта всего за 1$. Внимание количество ограничено!!!

2 сезон

iTunes

1 сезон

1

iTunes

iTunes

iTunes

1 сезон

RePack

30

ИГРА 18+

pack

ВАЖНО

!!Акция!!

Alien_RageХит недели

RePack

MK11
pack

Забери бонус

RePack

jed

!!Акция!!

Alien_Rage

RePack

fifa19

RePack

Assassins Creed: Odyssey

RePack

NEED FOR SPEED™ PAYBACK

4 сезон

9 сезон

Бесстыжие 9 сезон

Все сериалы

все сериалы на PB.wtf

RePack

FAR CRY 5
  

Дневник беременной / Сезон: 1 / Серии: 1-44 из 44 (Наталья Пасеницкая) [2012, комедия, SATRip] pb.wtf

Дневник беременной через торрент pb.wtf

Размер: 13.12 GB | Добавлен: 2 года 7 мес. назад | Торрент скачан:24 раза
Скачать  

18-03-2018 12:10 Дневник беременной Скачать торрент  

Дневник беременнойГод выпуска: 2012
Страна: Украина
Жанр: комедия
Продолжительность: 44 x ~ 00:24:49
Перевод: Не требуется
Субтитры: Украинские

Режиссер: Наталья Пасеницкая

В ролях:

Виктория Булитко, Евгений Сморигин, Оксана Стащенко, Тамара Яценко

Описание:

Обычный день беременной, когда настроение и желания меняются со скоростью звука, хочется соленого, то сладкого и мир вокруг приобретает неожиданные краски. Она проводит время в больнице, магазинах, а также с семьей дома, в скетчах присутствуют обращения мужа и родных, уставших от изменчивости характера девушки. Во время беременности она ведет дневник, в который записывает все, что с ней происходит...

Качество: SATRip
Формат: AVI

Видео: XviD, ~ 1532 Кбит/с, 720x400
Аудио: AC3, 2 ch, 192 Кбит/с
скриншот   скриншот   скриншот  

Общее
Полное имя : D:\Дневник беременной.2012.SATRip.Files-x\01.Дневник беременной.2012.SATRip.Files-x.avi
Формат : AVI
Формат/Информация : Audio Video Interleave
Размер файла : 308 Мбайт
Продолжительность : 24 м. 49 с.
Общий поток : 1734 Кбит/сек
Программа кодирования : VirtualDubMod 1.5.10.3 | www.virtualdub-fr.org || (build 2550/release)
Библиотека кодирования : VirtualDubMod build 2550/release

Видео
Идентификатор : 0
Формат : MPEG-4 Visual
Профиль формата : Advanced Simple@L5
Параметр BVOP формата : 1
Параметр QPel формата : Да
Параметр GMC формата : Без точки перехода
Параметр матрицы формата : Выборочная
Идентификатор кодека : XVID
Идентификатор кодека/Подсказка : XviD
Продолжительность : 24 м. 49 с.
Битрейт : 1532 Кбит/сек
Ширина : 720 пикселей
Высота : 400 пикселей
Соотношение сторон : 16:9
Частота кадров : 25,000 кадров/сек
Цветовое пространство : YUV
Субдискретизация насыщенности : 4:2:0
Битовая глубина : 8 бит
Тип развёртки : Прогрессивная
Метод сжатия : С потерями
Бит/(Пиксели*Кадры) : 0.213
Размер потока : 272 Мбайт (88%)
Библиотека кодирования : XviD 73

Аудио
Идентификатор : 1
Формат : AC-3
Формат/Информация : Audio Coding 3
Расширение режима : CM (complete main)
Параметр Endianness формата : Big
Идентификатор кодека : 2000
Продолжительность : 24 м. 49 с.
Вид битрейта : Постоянный
Битрейт : 192 Кбит/сек
Каналы : 2 канала
Расположение каналов : Front: L R
Частота : 48,0 КГц
Частота кадров : 31,250 кадров/сек (1536 spf)
Метод сжатия : С потерями
Размер потока : 34,1 Мбайт (11%)
Выравнивание : Разделение по промежуткам
Продолжительность промежутка : 40 мс. (1,00 видеокадр)
Время предзагрузки промежутка : 500 мс.

pb.wtf



Скачать Дневник беременной через торрент http://i100.fastpic.ru/big/2018/0114/6b/811d61f72497093f513a36ab4e60d56b.jpg Скачать фильм Дневник беременной через торрент бесплантно в хорошем качестве Описание: Обычный день беременной, когда настроение и желания меняются со скоростью звука, хочется соленого, то сладкого и мир вокруг ... 10 10 2
Торрент: Зарегистрирован [2018-03-18 12:10] · скачан: 24 раз
Статус: √ проверено
Размер: 13.12 GB
Как cкачать? Как скачать Дневник беременной через торрент | qTorrent

28-11-2019 20:33  

Отключить всю рекламу на сайте

    Дорогой пользователь! Огромная просьба, поблагодарите релизера, оцените раздачу и оставьте свои комментарий, если Вы скачали Дневник беременной через торрент бесплатно! Внесите свою лепту в развитие PiratBit!
    Комментировать посты могут только пользователи прошедшие не сложную регистрацию
    Показать сообщения:    

    Дневник беременной через торрент
    Скачать бесплатно Дневник беременной
    Дневник беременной скачать торрент
    Дневник беременной смотреть онлайн
    Cкачать фильм Дневник беременной бесплатно
    Дневник беременной скачать торрент в хорошем качестве
    Дневник беременной смотреть онлайн бесплатно в хорошем качестве


    Вы не можете начинать темы
    Вы не можете отвечать на сообщения
    Вы не можете редактировать свои сообщения
    Вы не можете удалять свои сообщения
    Вы не можете голосовать в опросах
    Вы не можете прикреплять файлы к сообщениям
    Вы можете скачивать файлы