новый адрес
Ссылка на приватное зеркало всего за 1$. Внимание количество ограничено!!!

iTunes

1+1

iTunes

мы

iTunes

1

iTunes

Чернобыль

iTunes

Ральф против интернета

Лицензия

ПШазам

Лицензия

Оно 2

Лицензия

30
pack

Вам бонус

ВАЖНО

!!Акция!!

Alien_RageХит недели

RePack

Resident Evil 21

ИГРА 18+

pack

RePack

jed

!!Акция!!

Alien_Rage

RePack

fifa19

RePack

Assassins Creed: Odyssey

RePack

NEED FOR SPEED™ PAYBACK

3 сезон

9 сезон

Бесстыжие 9 сезон

Все сериалы

все сериалы на PB.wtf

RePack

FAR CRY 5
Ребята, катастрофически не хватает 1900р. для оплаты серверов за Октябрь (всвязи с блокировками трафик упал в 3 раза), 1-2р., выручайте.
  

Немой / Mute (Дункан Джонс / Duncan Jones) [2018, фантастика, триллер, детектив, WEBRip-AVC] MVO [NewStudio] pb.wtf

Немой через торрент pb.wtf

Размер: 1.43 GB | Добавлен: 1 год 8 мес. назад | Торрент скачан:522 раза
Скачать  

18-03-2018 15:02 Немой Скачать торрент  

Немой
Mute

«He doesn't need words»


Страна: Великобритания, Германия
Жанр: фантастика, триллер, детектив

Год выпуска: 2018
Продолжительность: 02:06:38

Перевод: Профессиональный (многоголосый, закадровый) [NewStudio]
Субтитры: русские (форсированные, полные)
Оригинальная аудиодорожка: нет

Режиссер: Дункан Джонс / Duncan Jones

В ролях: Levi Eisenblätter, Рози Шоу, Ойген Баудер, Ливия Маттес, Jarah Maria Anders, Caroline Peters, Лаура Де Бур, Грегуар Грос, Александр Скарсгард, Сейнеб Салех, Роберт Шиэн, Пол Радд

Описание:
Берлин, 2052 год. Лео Байлер - немой бармен, и у него больше нет причин для существования: его любимая женщина исчезает. Поиски приводят Лео в подземный город, где он знакомится с парой американских хирургов. Лео не может понять, кем являются его новые знакомые - то ли они могут ему помочь, то ли ему стоит бежать от них подальше.



Релиз:

Автор рипа: stalkerok | Моя группа
Форсированные субтитры созданы на основе субтитров от Netflix.

Сэмпл

Качество видео: WEBRip-AVC [Исходник: Mute.2018.1080p.NF.WEBRip.DD5.1.x264-NTb]
Формат видео: MKV
Видео кодек: AVC
Аудио кодек: AC3
Видео: AVC, 1231 Кбит/сек, 960x480 (2.000), 24 кадр/сек
Аудио: AC3, 384 Кбит/сек, 48 КГц, 5.1 - русский

---[Information] [17.03.2018 23:50:06] x264 [info]: frame I:1573 Avg QP:19.40 size: 42511
---[Information] [17.03.2018 23:50:06] x264 [info]: frame P:41949 Avg QP:21.86 size: 13497
---[Information] [17.03.2018 23:50:06] x264 [info]: frame B:138838 Avg QP:23.40 size: 3867

General
Unique ID : 242437020753186553282271904838387059494 (0xB663ABFA6837EF9CA73115A3368D4B26)
Complete name : V:\!Rips\Mute (2018)\Mute.2018.WEBRip-AVC.RUS.stalkerok.new-team.mkv
Format : Matroska
Format version : Version 4 / Version 2
File size : 1.43 GiB
Duration : 2 h 6 min
Overall bit rate : 1 618 kb/s
Movie name : Mute (2018) (Rip by stalkerok)
Encoded date : UTC 2018-03-18 10:27:11
Writing application : mkvmerge v8.6.1 ('Flying') 64bit
Writing library : libebml v1.3.3 + libmatroska v1.4.4

Video
ID : 1
Format : AVC
Format/Info : Advanced Video Codec
Format profile : High@L4.1
Format settings, CABAC : Yes
Format settings, ReFrames : 13 frames
Codec ID : V_MPEG4/ISO/AVC
Duration : 2 h 6 min
Bit rate : 1 232 kb/s
Width : 960 pixels
Height : 480 pixels
Display aspect ratio : 2.000
Frame rate mode : Constant
Frame rate : 24.000 FPS
Color space : YUV
Chroma subsampling : 4:2:0
Bit depth : 8 bits
Scan type : Progressive
Bits/(Pixel*Frame) : 0.111
Stream size : 1.09 GiB (76%)
Title : Mute (2018) (Rip by stalkerok)
Writing library : x264 core 155 r2901 7d0ff22
Encoding settings : cabac=1 / ref=13 / deblock=1:-3:-2 / analyse=0x3:0x133 / me=umh / subme=11 / psy=1 / psy_rd=1.00:0.00 / mixed_ref=1 / me_range=32 / chroma_me=1 / trellis=2 / 8x8dct=1 / cqm=0 / deadzone=21,11 / fast_pskip=0 / chroma_qp_offset=-2 / threads=12 / lookahead_threads=3 / sliced_threads=0 / nr=0 / decimate=1 / interlaced=0 / bluray_compat=0 / constrained_intra=0 / bframes=14 / b_pyramid=2 / b_adapt=2 / b_bias=0 / direct=3 / weightb=1 / open_gop=0 / weightp=2 / keyint=240 / keyint_min=23 / scenecut=40 / intra_refresh=0 / rc_lookahead=60 / rc=crf / mbtree=0 / crf=21.1 / qcomp=0.65 / qpmin=0 / qpmax=69 / qpstep=4 / vbv_maxrate=50000 / vbv_bufsize=62500 / crf_max=0.0 / nal_hrd=none / filler=0 / ip_ratio=1.40 / pb_ratio=1.30 / aq=3:0.85 / zones=171174,182359,q=34
Default : Yes
Forced : No

Audio
ID : 2
Format : AC-3
Format/Info : Audio Coding 3
Mode extension : CM (complete main)
Format settings, Endianness : Big
Codec ID : A_AC3
Duration : 2 h 6 min
Bit rate mode : Constant
Bit rate : 384 kb/s
Channel(s) : 6 channels
Channel positions : Front: L C R, Side: L R, LFE
Sampling rate : 48.0 kHz
Frame rate : 31.250 FPS (1536 spf)
Compression mode : Lossy
Stream size : 348 MiB (24%)
Title : NewStudio
Language : Russian
Default : Yes
Forced : No

Text #1
ID : 3
Format : UTF-8
Codec ID : S_TEXT/UTF8
Codec ID/Info : UTF-8 Plain Text
Duration : 1 h 58 min
Bit rate : 2 b/s
Count of elements : 59
Stream size : 2.39 KiB (0%)
Title : Forced
Language : Russian
Default : Yes
Forced : No

Text #2
ID : 4
Format : UTF-8
Codec ID : S_TEXT/UTF8
Codec ID/Info : UTF-8 Plain Text
Duration : 1 h 58 min
Bit rate : 57 b/s
Count of elements : 1100
Stream size : 50.2 KiB (0%)
Title : Netflix
Language : Russian
Default : No
Forced : No

Text #3
ID : 5
Format : UTF-8
Codec ID : S_TEXT/UTF8
Codec ID/Info : UTF-8 Plain Text
Duration : 1 h 58 min
Bit rate : 64 b/s
Count of elements : 1056
Stream size : 56.1 KiB (0%)
Title : Focs
Language : Russian
Default : No
Forced : No
скриншот   скриншот   скриншот   скриншот   скриншот   скриншот   скриншот  
pb.wtf



Скачать Немой через торрент http://i6.imageban.ru/out/2017/09/18/2ff75c0c358795c5946784cc1680714d.png Скачать фильм Немой через торрент бесплантно в хорошем качестве Описание:Берлин, 2052 год. Лео Байлер - немой бармен, и у него больше нет причин для существования: его любимая женщина исчезает. Поиски ... 9.2 10 11
Info! Золотая раздача, скачанное не засчитывается.
Торрент: Зарегистрирован [2018-03-18 15:02] · скачан: 522 раз
Статус: √ проверено
Размер: 1.43 GB
Как cкачать? Как скачать Немой через торрент | qTorrent

% Раздел Тема Автор DL S | L
Фильмы 2018 [DVDrip, WEB-DLRip, HDrip] (DUB, MVO) [ 2.2 GB ] Немой / Mute [2018 WEBRip-AVC] MVO [NewStudio] sokol_ok Скачать
1 | 0
T Фильмы 2018 [DVDrip, WEB-DLRip, HDrip] (DUB, MVO) [ 2.47 GB ] Немой / Mute [2018 WEBRip-AVC] MVO [HDrezka Studio] WorldSM Скачать
2 | 0
T Фильмы (WEB-DL 720p, 1080p) [ 3.67 GB ] Немой / Mute [2018 WEBRip 1080p] MVO [BaibaKo] bober100 Скачать
1 | 0
T Фильмы (мультфильмы) cо спонсором показа (Новинки AVI/MKV) [ 2.05 GB ] Немой / Mute [2018 WEBRip] [MVO] killermax2013 Скачать
2 | 0
T Фильмы (мультфильмы) cо спонсором показа (Новинки AVI/MKV) [ 16.07 GB ] Немой / Mute [2018 WEBRip 1080p] [MVO] killermax2013 Скачать
1 | 0
T Фильмы 2018 [DVDrip, WEB-DLRip, HDrip] (DUB, MVO) [ 1.46 GB ] Немой / Mute [2018 WEBRip] MVO [BaibaKo] bober100 Скачать
2 | 0
T Фильмы без перевода [ 3.34 GB ] Немой / Mute [2018 WEBRip 1080p] [Sub Rus] killermax2013 Скачать
1 | 0
Отключить всю рекламу на сайте

24-04-2018 12:00 Немой Скачать торрент  

Отличный фильм, в случае с Дунканом Джонсом природа не отдохнула на ребенке. Фильм необычный, несовременный, не мейнстрим, это скорее авторское кино. Если вам нравится *Бегущий по лезвию* 1982 года и *твердая* НФ то и *Немой* для вас. Большинство зрителей по-видимому ждут чего- то более легкого, из-за этого рейтинг низкий. Качество рипа отличное. Спасибо за раздачу.pb.wtf



    Дорогой пользователь! Огромная просьба, поблагодарите релизера, оцените раздачу и оставьте свои комментарий, если Вы скачали Немой через торрент бесплатно! Внесите свою лепту в развитие PiratBit!
    Комментировать посты могут только пользователи прошедшие не сложную регистрацию
    Показать сообщения:    

    Немой через торрент
    Скачать бесплатно Немой
    Немой скачать торрент
    Немой смотреть онлайн
    Cкачать фильм Немой бесплатно
    Немой скачать торрент в хорошем качестве
    Немой смотреть онлайн бесплатно в хорошем качестве


    Вы не можете начинать темы
    Вы не можете отвечать на сообщения
    Вы не можете редактировать свои сообщения
    Вы не можете удалять свои сообщения
    Вы не можете голосовать в опросах
    Вы не можете прикреплять файлы к сообщениям
    Вы можете скачивать файлы