новый адрес
Ссылка на приватное зеркало всего за 1$. Внимание количество ограничено!!!

iTunes

1+1

iTunes

мы

WEB-DL

1

iTunes

Чернобыль

iTunes

Ральф против интернета

Лицензия

ПШазам

Лицензия

Оно 2

Лицензия

30
pack

Вам бонус

ВАЖНО

!!Акция!!

Alien_RageХит недели

RePack

Resident Evil 21

ИГРА 18+

pack

RePack

jed

!!Акция!!

Alien_Rage

RePack

fifa19

RePack

Assassins Creed: Odyssey

RePack

NEED FOR SPEED™ PAYBACK

3 сезон

9 сезон

Бесстыжие 9 сезон

Все сериалы

все сериалы на PB.wtf

RePack

FAR CRY 5
Ребята, катастрофически не хватает 1900р. для оплаты серверов за Октябрь (всвязи с блокировками трафик упал в 3 раза), 1-2р., выручайте.
  

Немой / Mute (Дункан Джонс / Duncan Jones) [2018, фантастика, триллер, детектив, WEBRip-AVC] MVO [NewStudio] pb.wtf

Немой через торрент pb.wtf

Размер: 2.2 GB | Добавлен: 1 год 8 мес. назад | Торрент скачан:438 раз
Скачать  

18-03-2018 15:31 Немой Скачать торрент  

Немой
Mute

«He doesn't need words»


Страна: Великобритания, Германия
Жанр: фантастика, триллер, детектив

Год выпуска: 2018
Продолжительность: 02:06:38

Перевод: Профессиональный (многоголосый, закадровый) [NewStudio]
Субтитры: русские (форсированные, полные), английские (форсированные, полные, SDH)
Оригинальная аудиодорожка: английский

Режиссер: Дункан Джонс / Duncan Jones

В ролях: Levi Eisenblätter, Рози Шоу, Ойген Баудер, Ливия Маттес, Jarah Maria Anders, Caroline Peters, Лаура Де Бур, Грегуар Грос, Александр Скарсгард, Сейнеб Салех, Роберт Шиэн, Пол Радд

Описание:
Берлин, 2052 год. Лео Байлер - немой бармен, и у него больше нет причин для существования: его любимая женщина исчезает. Поиски приводят Лео в подземный город, где он знакомится с парой американских хирургов. Лео не может понять, кем являются его новые знакомые - то ли они могут ему помочь, то ли ему стоит бежать от них подальше.



Релиз:

Автор рипа: stalkerok | Моя группа
Форсированные субтитры созданы на основе субтитров от Netflix.

Сэмпл

Качество видео: WEBRip-AVC [Исходник: Mute.2018.1080p.NF.WEBRip.DD5.1.x264-NTb]
Формат видео: MKV
Видео кодек: AVC
Аудио кодек: AC3
Видео: AVC, 1719 Кбит/сек, 1084x542 (2.000), 24 кадр/сек
Аудио #1: AC3, 384 Кбит/сек, 48 КГц, 5.1 - русский
Аудио #2: AC3, 384 Кбит/сек, 48 КГц, 5.1 - английский

---[Information] [18.03.2018 17:46:49] x264 [info]: frame I:1542 Avg QP:19.20 size: 54580
---[Information] [18.03.2018 17:46:49] x264 [info]: frame P:38513 Avg QP:20.76 size: 20037
---[Information] [18.03.2018 17:46:49] x264 [info]: frame B:142305 Avg QP:23.06 size: 5461

Общее
Уникальный идентификатор : 188534477331307654220456481689574461963 (0x8DD66B673F43F9CEAEFE455D7B3E520B)
Полное имя : V:\!Rips\Mute (2018)\Mute.2018.WEBRip-AVC.RUS.ENG.stalkerok.new-team.mkv
Формат : Matroska
Версия формата : Version 4 / Version 2
Размер файла : 2,20 Гбайт
Продолжительность : 2 ч. 6 м.
Общий поток : 2490 Кбит/сек
Название фильма : Mute (2018) (Rip by stalkerok)
Дата кодирования : UTC 2018-03-18 14:51:56
Программа кодирования : mkvmerge v8.6.1 ('Flying') 64bit
Библиотека кодирования : libebml v1.3.3 + libmatroska v1.4.4

Видео
Идентификатор : 1
Формат : AVC
Формат/Информация : Advanced Video Codec
Профиль формата : High@L4.1
Параметр CABAC формата : Да
Параметр ReFrames формата : 12 кадров
Идентификатор кодека : V_MPEG4/ISO/AVC
Продолжительность : 2 ч. 6 м.
Битрейт : 1719 Кбит/сек
Ширина : 1084 пикселя
Высота : 542 пикселя
Соотношение сторон : 2,000
Режим частоты кадров : Постоянный
Частота кадров : 24,000 кадра/сек
Цветовое пространство : YUV
Субдискретизация насыщенности : 4:2:0
Битовая глубина : 8 бит
Тип развёртки : Прогрессивная
Бит/(Пиксели*Кадры) : 0.122
Размер потока : 1,52 Гбайт (69%)
Заголовок : Mute (2018) (Rip by stalkerok)
Библиотека кодирования : x264 core 155 r2901 7d0ff22
Настройки программы : cabac=1 / ref=12 / deblock=1:-3:-2 / analyse=0x3:0x133 / me=umh / subme=11 / psy=1 / psy_rd=1.00:0.00 / mixed_ref=1 / me_range=32 / chroma_me=1 / trellis=2 / 8x8dct=1 / cqm=0 / deadzone=21,11 / fast_pskip=0 / chroma_qp_offset=-2 / threads=12 / lookahead_threads=3 / sliced_threads=0 / nr=0 / decimate=1 / interlaced=0 / bluray_compat=0 / constrained_intra=0 / bframes=14 / b_pyramid=2 / b_adapt=2 / b_bias=0 / direct=3 / weightb=1 / open_gop=0 / weightp=2 / keyint=240 / keyint_min=23 / scenecut=40 / intra_refresh=0 / rc_lookahead=60 / rc=crf / mbtree=0 / crf=21.0 / qcomp=0.65 / qpmin=0 / qpmax=69 / qpstep=4 / vbv_maxrate=50000 / vbv_bufsize=62500 / crf_max=0.0 / nal_hrd=none / filler=0 / ip_ratio=1.40 / pb_ratio=1.30 / aq=3:0.85 / zones=171174,182359,q=34
Default : Да
Forced : Нет

Аудио #1
Идентификатор : 2
Формат : AC-3
Формат/Информация : Audio Coding 3
Расширение режима : CM (complete main)
Параметр Endianness формата : Big
Идентификатор кодека : A_AC3
Продолжительность : 2 ч. 6 м.
Вид битрейта : Постоянный
Битрейт : 384 Кбит/сек
Каналы : 6 каналов
Расположение каналов : Front: L C R, Side: L R, LFE
Частота : 48,0 КГц
Частота кадров : 31,250 кадров/сек (1536 spf)
Метод сжатия : С потерями
Размер потока : 348 Мбайт (15%)
Заголовок : NewStudio
Язык : Russian
Default : Да
Forced : Нет

Аудио #2
Идентификатор : 6
Формат : AC-3
Формат/Информация : Audio Coding 3
Расширение режима : CM (complete main)
Параметр Endianness формата : Big
Идентификатор кодека : A_AC3
Продолжительность : 2 ч. 6 м.
Вид битрейта : Постоянный
Битрейт : 384 Кбит/сек
Каналы : 6 каналов
Расположение каналов : Front: L C R, Side: L R, LFE
Частота : 48,0 КГц
Частота кадров : 31,250 кадров/сек (1536 spf)
Метод сжатия : С потерями
Размер потока : 348 Мбайт (15%)
Язык : English
Default : Нет
Forced : Нет

Текст #1
Идентификатор : 3
Формат : UTF-8
Идентификатор кодека : S_TEXT/UTF8
Идентификатор кодека/Информация : UTF-8 Plain Text
Продолжительность : 1 ч. 58 м.
Битрейт : 2 бит/сек
Count of elements : 59
Размер потока : 2,39 Кбайт (0%)
Заголовок : Forced
Язык : Russian
Default : Да
Forced : Нет

Текст #2
Идентификатор : 4
Формат : UTF-8
Идентификатор кодека : S_TEXT/UTF8
Идентификатор кодека/Информация : UTF-8 Plain Text
Продолжительность : 1 ч. 58 м.
Битрейт : 57 бит/сек
Count of elements : 1100
Размер потока : 50,2 Кбайт (0%)
Заголовок : Netflix
Язык : Russian
Default : Нет
Forced : Нет

Текст #3
Идентификатор : 5
Формат : UTF-8
Идентификатор кодека : S_TEXT/UTF8
Идентификатор кодека/Информация : UTF-8 Plain Text
Продолжительность : 1 ч. 58 м.
Битрейт : 64 бит/сек
Count of elements : 1056
Размер потока : 56,1 Кбайт (0%)
Заголовок : Focs
Язык : Russian
Default : Нет
Forced : Нет

Текст #4
Идентификатор : 7
Формат : UTF-8
Идентификатор кодека : S_TEXT/UTF8
Идентификатор кодека/Информация : UTF-8 Plain Text
Продолжительность : 1 ч. 28 м.
Битрейт : 1 бит/сек
Count of elements : 43
Размер потока : 1,14 Кбайт (0%)
Заголовок : Forced
Язык : English
Default : Нет
Forced : Нет

Текст #5
Идентификатор : 8
Формат : UTF-8
Идентификатор кодека : S_TEXT/UTF8
Идентификатор кодека/Информация : UTF-8 Plain Text
Продолжительность : 1 ч. 56 м.
Битрейт : 38 бит/сек
Count of elements : 1076
Размер потока : 32,7 Кбайт (0%)
Язык : English
Default : Нет
Forced : Нет

Текст #6
Идентификатор : 9
Формат : UTF-8
Идентификатор кодека : S_TEXT/UTF8
Идентификатор кодека/Информация : UTF-8 Plain Text
Продолжительность : 1 ч. 56 м.
Битрейт : 45 бит/сек
Count of elements : 1224
Размер потока : 38,6 Кбайт (0%)
Заголовок : SDH
Язык : English
Default : Нет
Forced : Нет
скриншот   скриншот   скриншот   скриншот   скриншот   скриншот   скриншот   скриншот  
pb.wtf



Скачать Немой через торрент http://i6.imageban.ru/out/2017/09/18/2ff75c0c358795c5946784cc1680714d.png Скачать фильм Немой через торрент бесплантно в хорошем качестве Описание:Берлин, 2052 год. Лео Байлер - немой бармен, и у него больше нет причин для существования: его любимая женщина исчезает. Поиски ... 8 10 11
Info! Золотая раздача, скачанное не засчитывается.
Торрент: Зарегистрирован [2018-03-18 15:31] · скачан: 438 раз
Статус: √ проверено
Размер: 2.2 GB
Как cкачать? Как скачать Немой через торрент | qTorrent

% Раздел Тема Автор DL S | L
Фильмы 2018 [DVDrip, WEB-DLRip, HDrip] (DUB, MVO) [ 1.43 GB ] Немой / Mute [2018 WEBRip-AVC] MVO [NewStudio] sokol_ok Скачать
1 | 0
T Фильмы 2018 [DVDrip, WEB-DLRip, HDrip] (DUB, MVO) [ 2.47 GB ] Немой / Mute [2018 WEBRip-AVC] MVO [HDrezka Studio] WorldSM Скачать
1 | 0
T Фильмы (WEB-DL 720p, 1080p) [ 3.67 GB ] Немой / Mute [2018 WEBRip 1080p] MVO [BaibaKo] bober100 Скачать
1 | 0
T Фильмы (мультфильмы) cо спонсором показа (Новинки AVI/MKV) [ 2.05 GB ] Немой / Mute [2018 WEBRip] [MVO] killermax2013 Скачать
2 | 0
T Фильмы (мультфильмы) cо спонсором показа (Новинки AVI/MKV) [ 16.07 GB ] Немой / Mute [2018 WEBRip 1080p] [MVO] killermax2013 Скачать
1 | 0
T Фильмы 2018 [DVDrip, WEB-DLRip, HDrip] (DUB, MVO) [ 1.46 GB ] Немой / Mute [2018 WEBRip] MVO [BaibaKo] bober100 Скачать
2 | 0
T Фильмы без перевода [ 3.34 GB ] Немой / Mute [2018 WEBRip 1080p] [Sub Rus] killermax2013 Скачать
1 | 0

28-11-2019 20:33  

Отключить всю рекламу на сайте

    Дорогой пользователь! Огромная просьба, поблагодарите релизера, оцените раздачу и оставьте свои комментарий, если Вы скачали Немой через торрент бесплатно! Внесите свою лепту в развитие PiratBit!
    Комментировать посты могут только пользователи прошедшие не сложную регистрацию
    Показать сообщения:    

    Немой через торрент
    Скачать бесплатно Немой
    Немой скачать торрент
    Немой смотреть онлайн
    Cкачать фильм Немой бесплатно
    Немой скачать торрент в хорошем качестве
    Немой смотреть онлайн бесплатно в хорошем качестве


    Вы не можете начинать темы
    Вы не можете отвечать на сообщения
    Вы не можете редактировать свои сообщения
    Вы не можете удалять свои сообщения
    Вы не можете голосовать в опросах
    Вы не можете прикреплять файлы к сообщениям
    Вы можете скачивать файлы