Ссылка на приватное зеркало всего за 1$. Внимание количество ограничено!!!

iTunes

iTunes

iTunes

1

iTunes

iTunes

iTunes

WEBRip

iTunes

30
pack

$ от Little Big

ВАЖНО

!!Акция!!

Alien_RageХит недели

RePack

Resident Evil 21

ИГРА 18+

pack

RePack

jed

!!Акция!!

Alien_Rage

RePack

fifa19

RePack

Assassins Creed: Odyssey

RePack

NEED FOR SPEED™ PAYBACK

4 сезон

9 сезон

Бесстыжие 9 сезон

Все сериалы

все сериалы на PB.wtf

RePack

FAR CRY 5
  

Мир, полный чудес / Wonderstruck (Тодд Хейнс) [2017, драма, детектив, семейный, BDRip 720p] MVO [@MUZOBOZ@] pb.wtf

Мир, полный чудес через торрент pb.wtf

Размер: 5.46 GB | Добавлен: 2 года 4 мес. назад | Торрент скачан:38 раз
Скачать  

18-03-2018 15:56 Мир, полный чудес Скачать торрент  

Мир, полный чудес / WonderstruckГод выпуска: 2017
Страна: США
Жанр: драма, детектив, семейный
Продолжительность: 01:58:08
Перевод: Любительский (многоголосый) [@MUZOBOZ@]
Субтитры: отсутствуют

Режиссер: Тодд Хейнс

rating
В ролях:

Милли Симмондс, Джулианна Мур, Кори Майкл Смит, Джеймс Урбаняк, Дэмиэн Янг, Патрик Мёрни, Лорен Ридлофф, Энтони Натали, Кэрол Аддаббо

Описание:

История Бена и Роуз, которые живут в разные эпохи и не могут смириться с окружающим их миром. Бен мечтает найти своего отца, а мысли Роуз заняты загадочной актрисой. Однажды судьба толкает их на поиски того самого недостающего их жизни элемента.

Качество: BDRip 720p
Формат: MKV
Видео кодек: H.264
Аудио кодек: AC3

Видео: 6166 Kбит/с, 1280x536
Аудио#1: Русский, (AC3, 2 ch, 448 Кбит/с)
скриншот  скриншот  скриншот  

Общее
Уникальный идентификатор : 189372503809308937995866789712120528046 (0x8E77D14C76B4BBEDA1DA9920A3343CAE)
Полное имя : D:\Wonderstruck.2017.P.BDRip.72Op_KOSHARA.mkv
Формат : Matroska
Версия формата : Version 2
Размер файла : 5,46 Гбайт
Продолжительность : 1 ч. 58 м.
Режим общего битрейта : Переменный
Общий поток : 6616 Кбит/сек
Дата кодирования : UTC 2018-03-17 19:29:42
Программа кодирования : mkvmerge v8.3.0 ('Over the Horizon') 64bit
Библиотека кодирования : libebml v1.3.1 + libmatroska v1.4.2

Видео
Идентификатор : 1
Формат : AVC
Формат/Информация : Advanced Video Codec
Профиль формата : High@L4.1
Параметр CABAC формата : Да
Параметр RefFrames формата : 4 кадра
Идентификатор кодека : V_MPEG4/ISO/AVC
Продолжительность : 1 ч. 58 м.
Вид битрейта : Переменный
Битрейт : 6166 Кбит/сек
Максимальный битрейт : 6800 Кбит/сек
Ширина : 1280 пикселей
Высота : 536 пикселей
Соотношение сторон : 2,40:1
Режим частоты кадров : Постоянный
Частота кадров : 23,976 (24000/1001) кадра/сек
Стандарт вещания : Component
Цветовое пространство : YUV
Субдискретизация насыщенности : 4:2:0
Битовая глубина : 8 бит
Тип развёртки : Прогрессивная
Бит/(Пиксели*Кадры) : 0.367
Размер потока : 4,98 Гбайт (91%)
Default : Да
Forced : Нет
Цветовой диапазон : Limited
Основные цвета : BT.709
Характеристики трансфера : BT.709
Коэффициенты матрицы : BT.709

Аудио
Идентификатор : 2
Формат : AC-3
Формат/Информация : Audio Coding 3
Расширение режима : CM (complete main)
Параметр Endianness формата : Big
Идентификатор кодека : A_AC3
Продолжительность : 1 ч. 58 м.
Вид битрейта : Постоянный
Битрейт : 448 Кбит/сек
Каналы : 2 канала
Расположение каналов : Front: L R
Частота : 48,0 КГц
Частота кадров : 31,250 кадров/сек (1536 spf)
Метод сжатия : С потерями
Размер потока : 379 Мбайт (7%)
Default : Да
Forced : Нет

pb.wtf



Скачать Мир, полный чудес через торрент http://i102.fastpic.ru/big/2018/0105/e5/d7cc0057ee0273b2c7ed428124bb96e5.jpg Скачать фильм Мир, полный чудес через торрент бесплантно в хорошем качестве Описание: История Бена и Роуз, которые живут в разные эпохи и не могут смириться с окружающим их миром. Бен мечтает найти своего отца, а ... 7 10 3
Торрент: Зарегистрирован [2018-03-18 15:56] · скачан: 38 раз
Статус: T временная
Размер: 5.46 GB
Как cкачать? Как скачать Мир, полный чудес через торрент | qTorrent

% Раздел Тема Автор DL S | L
T Фильмы (мультфильмы) cо спонсором показа (Новинки AVI/MKV) [ 2.05 GB ] Мир полный чудес / Wonderstruck [2017 HDRip] MVO [@MUZOBOZ@] bober100 Скачать
1 | 0
T Фильмы (мультфильмы) cо спонсором показа (Новинки AVI/MKV) [ 1.37 GB ] Мир полный чудес / Wonderstruck [2017 HDRip] MVO [@MUZOBOZ@] bober100 Скачать
1 | 0
Фильмы с авторской озвучкой [ 1.52 GB ] Мир полный чудес / Wonderstruck [2017 WEB-DLRip-AVC] AVO sokol_ok Скачать
2 | 0
Фильмы с авторской озвучкой [ 1.46 GB ] Мир полный чудес / Wonderstruck [2017 WEB-DLRip] AVO [BadBajo] - ExKinoRay Enigma2010 Скачать
1 | 0

28-11-2019 20:33  

Отключить всю рекламу на сайте

    Дорогой пользователь! Огромная просьба, поблагодарите релизера, оцените раздачу и оставьте свои комментарий, если Вы скачали Мир, полный чудес через торрент бесплатно! Внесите свою лепту в развитие PiratBit!
    Комментировать посты могут только пользователи прошедшие не сложную регистрацию
    Показать сообщения:    

    Мир, полный чудес через торрент
    Скачать бесплатно Мир, полный чудес
    Мир, полный чудес скачать торрент
    Мир, полный чудес смотреть онлайн
    Cкачать фильм Мир, полный чудес бесплатно
    Мир, полный чудес скачать торрент в хорошем качестве
    Мир, полный чудес смотреть онлайн бесплатно в хорошем качестве


    Вы не можете начинать темы
    Вы не можете отвечать на сообщения
    Вы не можете редактировать свои сообщения
    Вы не можете удалять свои сообщения
    Вы не можете голосовать в опросах
    Вы не можете прикреплять файлы к сообщениям
    Вы можете скачивать файлы