Ссылка на приватное зеркало всего за 1$. Внимание количество ограничено!!!

OK

1+1

iTunes

мы

OK

1

WEB-DLRip

Джокер

Пифагор

Ведьмак / The Witcher сериал

iTunes

ПШазам

ОК

Оно 2

iTunes

30
pack

Вам бонус

ВАЖНО

!!Акция!!

Alien_RageХит недели

RePack

Resident Evil 21

ИГРА 18+

pack

RePack

jed

RePack

fifa19

RePack

Assassins Creed: Odyssey

RePack

NEED FOR SPEED™ PAYBACK

4 сезон

9 сезон

Бесстыжие 9 сезон

Все сериалы

все сериалы на PB.wtf

RePack

FAR CRY 5
  

Фантастический Семейный Отель / Hotel de grote L (Инеке Хаутман) [2017, семейный, WEB-DL 720p] MVO ["Синема УС"] pb.wtf

Фантастический Семейный Отель через торрент pb.wtf

Размер: 2.98 GB | Добавлен: 1 год 10 мес. назад | Торрент скачан:23 раза
Скачать  

18-03-2018 16:13 Фантастический Семейный Отель Скачать торрент  

Фантастический Семейный Отель / Hotel de grote LГод выпуска: 2017
Страна: Нидерланды
Жанр: семейный
Продолжительность: 01:26:49
Перевод: Любительский (многоголосый) | "Синема УС"
Субтитры: отсутствуют

Режиссер: Инеке Хаутман

rating

В ролях:

Айко Бемстербоер, Иша де Боер, Флер дю Пре, Бенте Фоккенс, Эбби Хус, Тобиас Керслоот, Франк Ламерс, Юлиан Рас, Линде ван дер Шторм

Описание:

В центре сюжета 13-летний мальчик Кос, чья мама умерла, а отец попал в больницу. Теперь ему предстоит управлять семейным отелем и приглядывать за тремя совершенно разными сестрами.

Качество: WEB-DL 720p
Формат: MKV
Видео кодек: H.264
Аудио кодек: AC3

Видео: 4534 Кбит/с, 1280x536
Аудио#1: Русский, (AC3, 2 ch, 384 Кбит/с)
скриншот  скриншот  скриншот  

Общее
Уникальный идентификатор : 175854991496544656156678449308353694984 (0x844C707C793B4818B2EF52A301780D08)
Полное имя : D:\Hotel.de.grote.2017.P.WEB-DL.72Op_KOSHARA.mkv
Формат : Matroska
Версия формата : Version 2
Размер файла : 2,98 Гбайт
Продолжительность : 1 ч. 26 м.
Режим общего битрейта : Переменный
Общий поток : 4920 Кбит/сек
Дата кодирования : UTC 2018-03-17 19:32:07
Программа кодирования : mkvmerge v8.3.0 ('Over the Horizon') 64bit
Библиотека кодирования : libebml v1.3.1 + libmatroska v1.4.2

Видео
Идентификатор : 1
Формат : AVC
Формат/Информация : Advanced Video Codec
Профиль формата : High@L4.1
Параметр CABAC формата : Да
Параметр RefFrames формата : 4 кадра
Идентификатор кодека : V_MPEG4/ISO/AVC
Продолжительность : 1 ч. 26 м.
Вид битрейта : Переменный
Битрейт : 4534 Кбит/сек
Максимальный битрейт : 5000 Кбит/сек
Ширина : 1280 пикселей
Высота : 536 пикселей
Соотношение сторон : 2,40:1
Режим частоты кадров : Постоянный
Частота кадров : 23,976 (24000/1001) кадра/сек
Стандарт вещания : Component
Цветовое пространство : YUV
Субдискретизация насыщенности : 4:2:0
Битовая глубина : 8 бит
Тип развёртки : Прогрессивная
Бит/(Пиксели*Кадры) : 0.270
Размер потока : 2,69 Гбайт (90%)
Default : Да
Forced : Нет
Цветовой диапазон : Limited
Основные цвета : BT.709
Характеристики трансфера : BT.709
Коэффициенты матрицы : BT.709

Аудио
Идентификатор : 2
Формат : AC-3
Формат/Информация : Audio Coding 3
Расширение режима : CM (complete main)
Параметр Endianness формата : Big
Идентификатор кодека : A_AC3
Продолжительность : 1 ч. 26 м.
Вид битрейта : Постоянный
Битрейт : 384 Кбит/сек
Каналы : 2 канала
Расположение каналов : Front: L R
Частота : 48,0 КГц
Частота кадров : 31,250 кадров/сек (1536 spf)
Метод сжатия : С потерями
Размер потока : 238 Мбайт (8%)
Default : Да
Forced : Нет

pb.wtf



Скачать Фантастический Семейный Отель через торрент http://img12.lostpic.net/2018/03/18/455e56e1ec3de60b0a4fe38a3573bce3.jpg Скачать фильм Фантастический Семейный Отель через торрент бесплантно в хорошем качестве Описание: В центре сюжета 13-летний мальчик Кос, чья мама умерла, а отец попал в больницу. Теперь ему предстоит управлять семейным отелем и ... 10 10 2
Торрент: Зарегистрирован [2018-03-18 16:13] · скачан: 23 раз
Статус: T временная
Размер: 2.98 GB
Как cкачать? Как скачать Фантастический Семейный Отель через торрент | qTorrent

% Раздел Тема Автор DL S | L
T Фильмы (мультфильмы) cо спонсором показа (Новинки AVI/MKV) [ 1.37 GB ] Фантастический Отель / Hotel de grote L [2017 WEB-DLRip] MVO ["Синема УС"] bober100 Скачать
1 | 0

28-11-2019 20:33  

Отключить всю рекламу на сайте


    Дорогой пользователь! Огромная просьба, поблагодарите релизера, оцените раздачу и оставьте свои комментарий, если Вы скачали Фантастический Семейный Отель через торрент бесплатно! Внесите свою лепту в развитие PiratBit!
    Комментировать посты могут только пользователи прошедшие не сложную регистрацию
    Показать сообщения:    

    Фантастический Семейный Отель через торрент
    Скачать бесплатно Фантастический Семейный Отель
    Фантастический Семейный Отель скачать торрент
    Фантастический Семейный Отель смотреть онлайн
    Cкачать фильм Фантастический Семейный Отель бесплатно
    Фантастический Семейный Отель скачать торрент в хорошем качестве
    Фантастический Семейный Отель смотреть онлайн бесплатно в хорошем качестве


    Вы не можете начинать темы
    Вы не можете отвечать на сообщения
    Вы не можете редактировать свои сообщения
    Вы не можете удалять свои сообщения
    Вы не можете голосовать в опросах
    Вы не можете прикреплять файлы к сообщениям
    Вы можете скачивать файлы