Ссылка на приватное зеркало нашего сайта всего за 1$. Внимание количество ограничено!!!

2 сезон

iTunes

iTunes

1

iTunes

iTunes

iTunes

WEBRip

iTunes

30
pack

Новость дня

ВАЖНО

!!Акция!!

Alien_RageХит недели

RePack

Horizon Zero Dawn

ИГРА 18+

pack

RePack

jed

!!Акция!!

Alien_Rage

RePack

fifa19

RePack

Assassins Creed: Odyssey

RePack

NEED FOR SPEED™ PAYBACK

4 сезон

9 сезон

Бесстыжие 9 сезон

Все сериалы

все сериалы на PB.wtf

RePack

FAR CRY 5
  

Прощённый / The Forgiven (Роланд Жоффе) [2017, триллер, WEB-DL 720p] MVO [@MUZOBOZ@] pb.wtf

Прощённый через торрент pb.wtf

Размер: 4.11 GB | Добавлен: 2 года 6 мес. назад | Торрент скачан:27 раз
Скачать  

18-03-2018 16:29 Прощённый Скачать торрент  

Прощённый / The ForgivenГод выпуска: 2017
Страна: Великобритания
Жанр: триллер
Продолжительность: 02:02:25
Перевод: Любительский (многоголосый) [@MUZOBOZ@]
Субтитры: отсутствуют

Режиссер: Роланд Жоффе

rating
В ролях:

Форест Уитакер, Эрик Бана, Джефф Гам, Морн Виссер, Терри Нортон, Дэбби Шерман, Уоррик Грайр, Дэвид Батлер

Описание:

История несправедливости и ужасного гнёта населения в Южной Африке. После прихода к власти президента Нельсона Манделы, создаётся комиссия, основная цель которой выявить достоин ли человек, совершивший политическое преступление, амнистии. Но на что опираться, принимая такое важное, судьбоносное решение? Как понять, какие преступления заслуживают прощения? И где найти в себе силы прощать?

Качество: WEB-DL 720p
Формат: MKV
Видео кодек: H.264
Аудио кодек: AC3

Видео: 4422 Кбит/с, 1280x718
Аудио#1: Русский, (AC3, 2 ch, 384 Кбит/с)
скриншот  скриншот  скриншот  

Общее
Уникальный идентификатор : 253011321767039057767277730001131519083 (0xBE5835451FFE8D5E9AE0A4EEE225BC6B)
Полное имя : D:\The.Forgiven.2018.P.WEB-DL.72Op_KOSHARA.mkv
Формат : Matroska
Версия формата : Version 2
Размер файла : 4,11 Гбайт
Продолжительность : 2 ч. 2 м.
Режим общего битрейта : Переменный
Общий поток : 4808 Кбит/сек
Дата кодирования : UTC 2018-03-17 17:09:42
Программа кодирования : mkvmerge v8.3.0 ('Over the Horizon') 64bit
Библиотека кодирования : libebml v1.3.1 + libmatroska v1.4.2

Видео
Идентификатор : 1
Формат : AVC
Формат/Информация : Advanced Video Codec
Профиль формата : High@L4.1
Параметр CABAC формата : Да
Параметр RefFrames формата : 4 кадра
Идентификатор кодека : V_MPEG4/ISO/AVC
Продолжительность : 2 ч. 2 м.
Вид битрейта : Переменный
Битрейт : 4422 Кбит/сек
Максимальный битрейт : 5100 Кбит/сек
Ширина : 1280 пикселей
Высота : 718 пикселей
Соотношение сторон : 16:9
Режим частоты кадров : Постоянный
Частота кадров : 23,976 (24000/1001) кадра/сек
Стандарт вещания : Component
Цветовое пространство : YUV
Субдискретизация насыщенности : 4:2:0
Битовая глубина : 8 бит
Тип развёртки : Прогрессивная
Бит/(Пиксели*Кадры) : 0.196
Размер потока : 3,70 Гбайт (90%)
Default : Да
Forced : Нет
Цветовой диапазон : Limited
Основные цвета : BT.709
Характеристики трансфера : BT.709
Коэффициенты матрицы : BT.709

Аудио
Идентификатор : 2
Формат : AC-3
Формат/Информация : Audio Coding 3
Расширение режима : CM (complete main)
Параметр Endianness формата : Big
Идентификатор кодека : A_AC3
Продолжительность : 2 ч. 2 м.
Вид битрейта : Постоянный
Битрейт : 384 Кбит/сек
Каналы : 2 канала
Расположение каналов : Front: L R
Частота : 48,0 КГц
Частота кадров : 31,250 кадров/сек (1536 spf)
Метод сжатия : С потерями
Размер потока : 336 Мбайт (8%)
Default : Да
Forced : Нет

pb.wtf



Скачать Прощённый через торрент http://img12.lostpic.net/2018/03/18/bb4b00cbbadd8ef92d82dfa24deee57d.jpg Скачать фильм Прощённый через торрент бесплантно в хорошем качестве Описание: История несправедливости и ужасного гнёта населения в Южной Африке. После прихода к власти президента Нельсона Манделы, создаётся ... 10 10 2
Торрент: Зарегистрирован [2018-03-18 16:29] · скачан: 27 раз
Статус: T временная
Размер: 4.11 GB
Как cкачать? Как скачать Прощённый через торрент | qTorrent

% Раздел Тема Автор DL S | L
T Фильмы (мультфильмы) cо спонсором показа (Новинки AVI/MKV) [ 2.05 GB ] Прощённый / The Forgiven [2017 WEB-DLRip] MVO [@MUZOBOZ@] bober100 Скачать
1 | 0
T Фильмы (мультфильмы) cо спонсором показа (Новинки AVI/MKV) [ 1.37 GB ] Прощённый / The Forgiven [2017 WEB-DLRip] MVO [@MUZOBOZ@] bober100 Скачать
1 | 0

28-11-2019 20:33  

Отключить всю рекламу на сайте

    Дорогой пользователь! Огромная просьба, поблагодарите релизера, оцените раздачу и оставьте свои комментарий, если Вы скачали Прощённый через торрент бесплатно! Внесите свою лепту в развитие PiratBit!
    Комментировать посты могут только пользователи прошедшие не сложную регистрацию
    Показать сообщения:    

    Прощённый через торрент
    Скачать бесплатно Прощённый
    Прощённый скачать торрент
    Прощённый смотреть онлайн
    Cкачать фильм Прощённый бесплатно
    Прощённый скачать торрент в хорошем качестве
    Прощённый смотреть онлайн бесплатно в хорошем качестве


    Вы не можете начинать темы
    Вы не можете отвечать на сообщения
    Вы не можете редактировать свои сообщения
    Вы не можете удалять свои сообщения
    Вы не можете голосовать в опросах
    Вы не можете прикреплять файлы к сообщениям
    Вы можете скачивать файлы