Ссылка на приватное зеркало нашего сайта всего за 1$. Внимание количество ограничено!!!

2 сезон

iTunes

1 сезон

1

2 сезон

2 сезон

iTunes

1 сезон

RePack

30

Ultimate

ВАЖНО

ИГРА 18+

pack

RePack

MK11
pack

Забери бонус

RePack

jed

!!Акция!!

Alien_Rage

RePack

fifa19

RePack

Assassins Creed: Odyssey

RePack

NEED FOR SPEED™ PAYBACK

4 сезон

9 сезон

Бесстыжие 9 сезон

Все сериалы

все сериалы на PB.wtf

RePack

FAR CRY 5
  

Бюро человечества / The Humanity Bureau (Роб В. Кинг) [2017, Фантастика, боевик, BD Remux 1080p] MVO [@MUZOBOZ@] pb.wtf

Бюро человечества через торрент pb.wtf

Размер: 22.42 GB | Добавлен: 2 года 8 мес. назад | Торрент скачан:43 раза
Скачать  

18-03-2018 19:15 Бюро человечества Скачать торрент  

Бюро человечества / The Humanity BureauГод выпуска: 2017
Страна: Канада
Жанр: Фантастика, боевик
Продолжительность: 01:34:35
Перевод: Любительский (многоголосый) | @MUZOBOZ@
Субтитры: отсутствуют

Режиссер: Роб В. Кинг

rating

В ролях:

Николас Кейдж, Сара Линд, Хью Диллон, Виселос Реон Шеннон, Джейкоб Дейвис, Лорни Кардинал, Джетт Клине, Дэвид Ловгрен, Лео Фафард, Курт Макс Рунте

Описание:

В отдалённом будущем американское правительство утвердило секретную программу, по которой бедных, необразованных и неугодных стране людей сначала высылают в колонию, а затем уничтожают. Одно из таких дел попадает в руки агента. Проникшись симпатией к одинокой матери и её сыну, он решает помочь им бежать.

Качество: BD Remux 1080p
Формат: MKV

Видео: MPEG-4 AVC, 30.3 Mбит/с, 1920x1080, 24,000 кадр/с
Аудио#1: Русский (AC3, 2 ch, 192 Кбит/с) / Любительский многоголосый [@MUZOBOZ@]
Аудио#2: Английский (DTS-HD MA, 6 ch, 3483 Кбит/с)


скриншот   скриншот   скриншот   скриншот   скриншот   скриншот  

General
Unique ID : 119074096374270411890822587468333876126 (0x5994D63744534042A00B88F8D142839E)
Complete name : D:uTorrentBjuro.chelovechestva.2017.BDRemux.1080p.MediaClub.mkv
Format : Matroska
Format version : Version 4 / Version 2
File size : 22.4 GiB
Duration : 1 h 34 min
Overall bit rate : 33.9 Mb/s
Encoded date : UTC 2018-03-18 17:21:30
Writing application : mkvmerge v19.0.0 ('Brave Captain') 64-bit
Writing library : libebml v1.3.5 + libmatroska v1.4.8
Cover : Yes
Attachments : cover.jpg

Video
ID : 1
Format : AVC
Format/Info : Advanced Video Codec
Format profile : High@L4.1
Format settings : CABAC / 4 Ref Frames
Format settings, CABAC : Yes
Format settings, RefFrames : 4 frames
Codec ID : V_MPEG4/ISO/AVC
Duration : 1 h 34 min
Bit rate mode : Constant
Bit rate : 30.3 Mb/s
Nominal bit rate : 32.0 Mb/s
Width : 1 920 pixels
Height : 1 080 pixels
Display aspect ratio : 16:9
Frame rate mode : Constant
Frame rate : 24.000 FPS
Color space : YUV
Chroma subsampling : 4:2:0
Bit depth : 8 bits
Scan type : Progressive
Bits/(Pixel*Frame) : 0.608
Stream size : 20.0 GiB (89%)
Title : BDRemux by Silverok
Default : Yes
Forced : No

Audio #1
ID : 2
Format : AC-3
Format/Info : Audio Coding 3
Codec ID : A_AC3
Duration : 1 h 34 min
Bit rate mode : Constant
Bit rate : 192 kb/s
Channel(s) : 2 channels
Channel positions : Front: L R
Sampling rate : 48.0 kHz
Frame rate : 31.250 FPS (1536 SPF)
Bit depth : 16 bits
Compression mode : Lossy
Stream size : 130 MiB (1%)
Title : Любительский многоголосый [@MUZOBOZ@]
Language : Russian
Service kind : Complete Main
Default : Yes
Forced : No

Audio #2
ID : 3
Format : DTS
Format/Info : Digital Theater Systems
Format profile : MA / Core
Codec ID : A_DTS
Duration : 1 h 34 min
Bit rate mode : Variable / Constant
Bit rate : 3 483 kb/s / 1 509 kb/s
Channel(s) : 6 channels
Channel positions : Front: L C R, Side: L R, LFE
Sampling rate : 48.0 kHz
Frame rate : 93.750 FPS (512 SPF)
Bit depth : 24 bits
Compression mode : Lossless / Lossy
Stream size : 2.30 GiB (10%)
Language : English
Default : No
Forced : No

Menu
00:00:00.000 : en:00:00:00.000
00:00:34.042 : en:00:00:34.042
00:09:47.917 : en:00:09:47.917
00:15:59.208 : en:00:15:59.208
00:24:11.625 : en:00:24:11.625
00:32:02.542 : en:00:32:02.542
00:38:55.375 : en:00:38:55.375
00:48:29.375 : en:00:48:29.375
00:55:07.000 : en:00:55:07.000
01:04:01.833 : en:01:04:01.833
01:12:48.500 : en:01:12:48.500
01:20:40.083 : en:01:20:40.083
01:29:33.667 : en:01:29:33.667

pb.wtf



Скачать Бюро человечества через торрент http://img12.lostpic.net/2018/03/18/47cbf63b5733a4bc6d077d3e58c1c519.jpg Скачать фильм Бюро человечества через торрент бесплантно в хорошем качестве Описание: В отдалённом будущем американское правительство утвердило секретную программу, по которой бедных, необразованных и неугодных ... 10 10 3
Торрент: Зарегистрирован [2018-03-18 19:15] · скачан: 43 раз
Статус: T временная
Размер: 22.42 GB
Как cкачать? Как скачать Бюро человечества через торрент | qTorrent

% Раздел Тема Автор DL S | L
Фильмы 2017 [DVDrip, WEB-DLRip, HDrip] (DUB, MVO) [ 1.48 GB ] Бюро человечества / The Humanity Bureau [2017 BDRip-AVC] MVO - ExKinoRay Enigma2010 Скачать
1 | 0
Фильмы 2017 [DVDrip, WEB-DLRip, HDrip] (DUB, MVO) [ 743 MB ] Бюро человечества / The Humanity Bureau [2017 HDRip] MVO bober100 Скачать
1 | 0
Фильмы 2017 [DVDrip, WEB-DLRip, HDrip] (DUB, MVO) [ 1.46 GB ] Бюро человечества / The Humanity Bureau [2017 BDRip] MVO bober100 Скачать
2 | 0
Фильмы [HD 720p, 1080p] (Хороший звук DUB, MVO) [ 7.81 GB ] Бюро человечества / The Humanity Bureau [2017 BDRip 1080p] MVO bober100 Скачать
1 | 0
Фильмы [HD 720p, 1080p] (Хороший звук DUB, MVO) [ 3.85 GB ] Бюро человечества / The Humanity Bureau [2017 BDRip 720p] MVO bober100 Скачать
1 | 0
Фильмы [HD 720p, 1080p] (Хороший звук DUB, MVO) [ 3.22 GB ] Бюро человечества / The Humanity Bureau [2017 BDRip 720p] MVO - ExKinoRay Enigma2010 Скачать
3 | 0

28-11-2019 20:33  

Отключить всю рекламу на сайте

    Дорогой пользователь! Огромная просьба, поблагодарите релизера, оцените раздачу и оставьте свои комментарий, если Вы скачали Бюро человечества через торрент бесплатно! Внесите свою лепту в развитие PiratBit!
    Комментировать посты могут только пользователи прошедшие не сложную регистрацию
    Показать сообщения:    

    Бюро человечества через торрент
    Скачать бесплатно Бюро человечества
    Бюро человечества скачать торрент
    Бюро человечества смотреть онлайн
    Cкачать фильм Бюро человечества бесплатно
    Бюро человечества скачать торрент в хорошем качестве
    Бюро человечества смотреть онлайн бесплатно в хорошем качестве


    Вы не можете начинать темы
    Вы не можете отвечать на сообщения
    Вы не можете редактировать свои сообщения
    Вы не можете удалять свои сообщения
    Вы не можете голосовать в опросах
    Вы не можете прикреплять файлы к сообщениям
    Вы можете скачивать файлы