2 сезон

iTunes

MVO

1

2 сезон

iTunes

iTunes

1 сезон

RePack

30

Новинка

ВАЖНО

ИГРА 18+

pack

RePack

MK11
pack

Легкие деньги

RePack

jed

RePack

fifa19

RePack

RDR2

RePack

NEED FOR SPEED™ PAYBACK

4 сезон

9 сезон

Бесстыжие 9 сезон

Все сериалы

все сериалы на PB.wtf

RePack

FAR CRY 5

Anonymous, доброй ночи, мы не успеваем собрать деньги на оплату серверов за декабрь и январь, помогите нам пожалуйста в это трудное время. В качестве благодарности мы отключим Вам всю рекламу на сайте (укажите свой ник в строку Ваше имя)!

×
  
Magnet ссылка

Убить Гюнтера / Killing Gunther (Таран Киллэм) [2017, Боевик, комедия, BDRip 1080p] MVO [Лицензия / iTunes] pb.wtf

Убить Гюнтера через торрент pb.wtf

Размер: 9.07 GB | Добавлен: 2 года 10 мес. назад | Торрент скачан:309 раз
Скачать  

18-03-2018 22:07 Убить Гюнтера Скачать торрент  

Убить Гюнтера / Killing GuntherГод выпуска: 2017
Страна: США
Жанр: Боевик, комедия
Продолжительность: AC3, 6 ch, 384 kbps
Перевод: Профессиональный многоголосый | Лицензия / iTunes
Субтитры: отсутствуют

Режиссер: Таран Киллэм

rating

В ролях:


Таран Киллэм, Ханна Саймон (Sanaa), Бобби Мойнахан (Donnie), Пол Бриттейн (Gabe), Арнольд Шварценеггер, Питер Келамис (Rahmat), Аарон Ю (Yong), Коби Смолдерс (Lisa McCalla), Эллисон Толман (Mia), Стив Бачич (Max), Скотт МакНил (Cheyenne), Амир Талай (Izzat)
Описание:

В мире профессиональных убийц существует свой рейтинг, и на его вершине находится некто Гюнтер. Никто не знает, как он выглядит, и где его найти, но совершенно точно известно, что с ним лучше не связываться. Киллер Блейк решает поправить иерархию и любой ценой уничтожить легендарного Гюнтера, для чего собирает команду наёмников со всего света — хакера, взрывника, дочь террориста, безбашенных близнецов из России, китайского специалиста по ядам и даже убийцу с бионической рукой.

Качество: BDRip 1080p
Формат: MKV

Видео: MPEG-4 AVC, 12001 Кбит/с, 1920x1036
Аудио#1: Русский (AC3, 6 ch, 384 Кбит/с)
Аудио#2: англиский (DTS, 6 ch, 1510 Кбит/с)
скриншот   скриншот   скриншот  

Общее
Уникальный идентификатор : 218302074290386426465095065908404212917 (0xA43B733EFB3E6605B066A7F63992D4B5)
Полное имя : D:\Killing.Gunther.P.2017.BluRay.1080p.MTeam.mkv
Формат : Matroska
Версия формата : Version 2
Размер файла : 9,07 Гбайт
Продолжительность : 1 ч. 33 м.
Общий поток : 13,9 Мбит/сек
Дата кодирования : UTC 2018-03-18 20:17:04
Программа кодирования : mkvmerge v7.8.0 ('River Man') 32bit built on Apr 3 2015 12:11:22
Библиотека кодирования : libebml v1.3.1 + libmatroska v1.4.2

Видео
Идентификатор : 1
Формат : AVC
Формат/Информация : Advanced Video Codec
Профиль формата : High@L4.1
Параметр CABAC формата : Да
Параметр RefFrames формата : 4 кадра
Идентификатор кодека : V_MPEG4/ISO/AVC
Продолжительность : 1 ч. 33 м.
Битрейт : 12,0 Мбит/сек
Ширина : 1920 пикселей
Высота : 1036 пикселей
Соотношение сторон : 1,85:1
Режим частоты кадров : Постоянный
Частота кадров : 23,976 (24000/1001) кадра/сек
Цветовое пространство : YUV
Субдискретизация насыщенности : 4:2:0
Битовая глубина : 8 бит
Тип развёртки : Прогрессивная
Бит/(Пиксели*Кадры) : 0.252
Размер потока : 7,65 Гбайт (84%)
Библиотека кодирования : x264 core 142 r2431+42 c69a006 tMod [8-bit@4:2:0 X86]
Настройки программы : cabac=1 / ref=4 / deblock=1:-3:-3 / analyse=0x3:0x133 / me=umh / subme=10 / psy=1 / fade_compensate=0.00 / psy_rd=1.00:0.00 / mixed_ref=1 / me_range=48 / chroma_me=1 / trellis=2 / 8x8dct=1 / cqm=0 / deadzone=21,11 / fast_pskip=0 / chroma_qp_offset=-2 / threads=12 / lookahead_threads=1 / sliced_threads=0 / nr=0 / decimate=0 / interlaced=0 / bluray_compat=0 / constrained_intra=0 / fgo=0 / bframes=6 / b_pyramid=2 / b_adapt=2 / b_bias=0 / direct=3 / weightb=0 / open_gop=0 / weightp=2 / keyint=230 / keyint_min=22 / scenecut=40 / intra_refresh=0 / rc_lookahead=60 / rc=2pass / mbtree=1 / bitrate=12000 / ratetol=1.0 / qcomp=0.60 / qpmin=0:0:0 / qpmax=69:69:69 / qpstep=4 / cplxblur=20.0 / qblur=0.5 / vbv_maxrate=50000 / vbv_bufsize=50000 / nal_hrd=none / filler=0 / ip_ratio=1.40 / aq=1:1.00 / aq-sensitivity=10.00 / aq-factor=1.00:1.00:1.00 / aq2=0 / aq3=0
Default : Да
Forced : Нет

Аудио #1
Идентификатор : 2
Формат : AC-3
Формат/Информация : Audio Coding 3
Расширение режима : CM (complete main)
Параметр Endianness формата : Big
Идентификатор кодека : A_AC3
Продолжительность : 1 ч. 33 м.
Вид битрейта : Постоянный
Битрейт : 384 Кбит/сек
Каналы : 6 каналов
Расположение каналов : Front: L C R, Side: L R, LFE
Частота : 48,0 КГц
Частота кадров : 31,250 кадров/сек (1536 spf)
Метод сжатия : С потерями
Размер потока : 257 Мбайт (3%)
Язык : Russian
Default : Да
Forced : Нет

Аудио #2
Идентификатор : 3
Формат : DTS
Формат/Информация : Digital Theater Systems
Режим : 16
Параметр Endianness формата : Big
Идентификатор кодека : A_DTS
Продолжительность : 1 ч. 33 м.
Вид битрейта : Постоянный
Битрейт : 1509 Кбит/сек
Каналы : 6 каналов
Расположение каналов : Front: L C R, Side: L R, LFE
Частота : 48,0 КГц
Частота кадров : 93,750 кадра/сек (512 spf)
Битовая глубина : 24 бит
Метод сжатия : С потерями
Размер потока : 1009 Мбайт (11%)
Заголовок : 英语
Язык : English
Default : Нет
Forced : Нет

Текст
Идентификатор : 4
Формат : UTF-8
Идентификатор кодека : S_TEXT/UTF8
Идентификатор кодека/Информация : UTF-8 Plain Text
Default : Да
Forced : Нет
pb.wtf



Скачать Убить Гюнтера через торрент http://img12.lostpic.net/2018/03/18/e59f8a3ac8cc73cca40eca46a31866dc.png Скачать фильм Убить Гюнтера через торрент бесплантно в хорошем качестве Описание: В мире профессиональных убийц существует свой рейтинг, и на его вершине находится некто Гюнтер. Никто не знает, как он выглядит, ... 9.2 10 11
Info! Золотая раздача, скачанное не засчитывается.
Торрент: Зарегистрирован [2018-03-18 22:07] · скачан: 309 раз
Статус: √ проверено
Размер: 9.07 GB
Как cкачать? Как скачать Убить Гюнтера через торрент | UTorrent

% Раздел Тема Автор DL S | L
Фильмы [HD 720p, 1080p] (Хороший звук DUB, MVO) [ 5.61 GB ] Убить Гюнтера / Killing Gunther [2017 BDRip-HEVC 1080p ] MVO bober100 Скачать
1 | 0
Фильмы 2017 [DVDrip, WEB-DLRip, HDrip] (DUB, MVO) [ 1.46 GB ] Убить Гюнтера / Killing Gunther [2017 BDRip] [MVO] killermax2013 Скачать
1 | 0
T Релизы по Парсеру [Игры, Сериалы и Фильмы и другое...] [ 4.75 GB ] Убить Гюнтера / Killing Gunther [2017 BDRip 720p] MVO schultz Скачать
1 | 0
Фильмы (Blu-ray, BD-Remux, HDDVD) [ 16.89 GB ] Убить Гюнтера / Killing Gunther [2017 BD Remux 1080р] 2xMVO [MUZOBOZ] bober100 Скачать
1 | 0
Фильмы 2017 [DVDrip, WEB-DLRip, HDrip] (DUB, MVO) [ 2.22 GB ] Убить Гюнтера / Killing Gunther [2017 BDRip-AVC] MVO bober100 Скачать
1 | 0
Фильмы 2017 [DVDrip, WEB-DLRip, HDrip] (DUB, MVO) [ 1.42 GB ] Убить Гюнтера / Killing Gunther [2017 BDRip] MVO Twi7ter Скачать
1 | 0
Фильмы [HD 720p, 1080p] (Хороший звук DUB, MVO) [ 5.17 GB ] Убить Гюнтера / Killing Gunther [2017 BDRip 720p] MVO bober100 Скачать
1 | 0

28-11-2019 20:33  

Отключить всю рекламу на сайте

18-03-2018 22:31 Убить Гюнтера Скачать торрент  

любой новый фильм со Шварцем как что то нечто, спасибоpb.wtf



18-03-2018 22:54 Убить Гюнтера Скачать торрент  

Позорный калpb.wtf



19-03-2018 07:08 Убить Гюнтера Скачать торрент  

Что Брюс, что Арни, что-то старичков на дерьмо потянуло.pb.wtf



19-03-2018 12:09 Убить Гюнтера Скачать торрент  

ребят это походу стеб-фильм ,в конце после титров Арни поет, улыбнулоpb.wtf



    Дорогой пользователь! Огромная просьба, поблагодарите релизера, оцените раздачу и оставьте свои комментарий, если Вы скачали Убить Гюнтера через торрент бесплатно! Внесите свою лепту в развитие PiratBit!
    Комментировать посты могут только пользователи прошедшие не сложную регистрацию
    Показать сообщения:    

    Убить Гюнтера через торрент
    Скачать бесплатно Убить Гюнтера
    Убить Гюнтера скачать торрент
    Убить Гюнтера смотреть онлайн
    Cкачать фильм Убить Гюнтера бесплатно
    Убить Гюнтера скачать торрент в хорошем качестве
    Убить Гюнтера смотреть онлайн бесплатно в хорошем качестве


    Вы не можете начинать темы
    Вы не можете отвечать на сообщения
    Вы не можете редактировать свои сообщения
    Вы не можете удалять свои сообщения
    Вы не можете голосовать в опросах
    Вы не можете прикреплять файлы к сообщениям
    Вы можете скачивать файлы