2 сезон

iTunes

MVO

1

2 сезон

iTunes

iTunes

1 сезон

RePack

30

Новинка

ВАЖНО

ИГРА 18+

pack

RePack

MK11
pack

Легкие деньги

RePack

jed

RePack

fifa19

RePack

RDR2

RePack

NEED FOR SPEED™ PAYBACK

4 сезон

9 сезон

Бесстыжие 9 сезон

Все сериалы

все сериалы на PB.wtf

RePack

FAR CRY 5

Anonymous, добрый вечер, мы не успеваем собрать деньги на оплату серверов за декабрь и январь, помогите нам пожалуйста в это трудное время. В качестве благодарности мы отключим Вам всю рекламу на сайте (укажите свой ник в строку Ваше имя)!

×
  
Magnet ссылка

Убить Гюнтера / Killing Gunther (Таран Киллэм) [2017, Боевик, комедия, BDRip 720p] MVO [Лицензия / iTunes] pb.wtf

Убить Гюнтера через торрент pb.wtf

Размер: 5.17 GB | Добавлен: 2 года 9 мес. назад | Торрент скачан:194 раза
Скачать  

18-03-2018 22:19 Убить Гюнтера Скачать торрент  

Убить Гюнтера / Killing GuntherГод выпуска: 2017
Страна: США
Жанр: Боевик, комедия
Продолжительность: 01:33:27
Перевод: Профессиональный многоголосый | Лицензия / iTunes
Субтитры: отсутствуют

Режиссер: Таран Киллэм

rating

В ролях:


Таран Киллэм, Ханна Саймон (Sanaa), Бобби Мойнахан (Donnie), Пол Бриттейн (Gabe), Арнольд Шварценеггер, Питер Келамис (Rahmat), Аарон Ю (Yong), Коби Смолдерс (Lisa McCalla), Эллисон Толман (Mia), Стив Бачич (Max), Скотт МакНил (Cheyenne), Амир Талай (Izzat)
Описание:

В мире профессиональных убийц существует свой рейтинг, и на его вершине находится некто Гюнтер. Никто не знает, как он выглядит, и где его найти, но совершенно точно известно, что с ним лучше не связываться. Киллер Блейк решает поправить иерархию и любой ценой уничтожить легендарного Гюнтера, для чего собирает команду наёмников со всего света — хакера, взрывника, дочь террориста, безбашенных близнецов из России, китайского специалиста по ядам и даже убийцу с бионической рукой.

Качество: BDRip 720p
Формат: MKV

Видео: MPEG-4 AVC, 1280x690, 6000 kbps, 23,976 fps
Аудио#1: Русский (AC3, 6 ch, 384 Кбит/с)
Аудио#2: англиский (DTS, 6 ch, 1536 Кбит/с)
скриншот   скриншот   скриншот   скриншот   скриншот   скриншот  

Общее
Уникальный идентификатор : 223054198952492955158201815238903477311 (0xA7CEAD14C8C006CEA1C0835473B2343F)
Полное имя : E:UttorentKilling.GuntherBDRip720p.mkv
Формат : Matroska
Версия формата : Version 4 / Version 2
Размер файла : 5,17 Гбайт
Продолжительность : 1 ч. 33 м.
Общий поток : 7919 Кбит/сек
Название фильма : Killing.Gunther.2017
Дата кодирования : UTC 2018-03-18 21:20:42
Программа кодирования : mkvmerge v9.5.0 ('Quiet Fire') 64bit
Библиотека кодирования : libebml v1.3.4 + libmatroska v1.4.5

Видео
Идентификатор : 1
Формат : AVC
Формат/Информация : Advanced Video Codec
Профиль формата : High@L4.1
Настройки формата : CABAC / 9 Ref Frames
Параметр CABAC формата : Да
Параметр RefFrames формата : 9 кадров
Идентификатор кодека : V_MPEG4/ISO/AVC
Продолжительность : 1 ч. 33 м.
Битрейт : 6000 Кбит/сек
Ширина : 1280 пикселей
Высота : 690 пикселей
Соотношение сторон : 1,85:1
Соотношение сторон в оригинале : 1,85:1
Режим частоты кадров : Постоянный
Частота кадров : 23,976 (24000/1001) кадра/сек
Цветовое пространство : YUV
Субдискретизация насыщенности : 4:2:0
Битовая глубина : 8 бит
Тип развёртки : Прогрессивная
Бит/(Пиксели*Кадры) : 0.283
Размер потока : 3,91 Гбайт (76%)
Заголовок : Killing.Gunther.2017.BDREMUX 1080p
Библиотека кодирования : x264 core 128 r2216M 198a7ea
Настройки программы : cabac=1 / ref=9 / deblock=1:-3:-3 / analyse=0x3:0x133 / me=umh / subme=11 / psy=1 / psy_rd=1.00:0.15 / mixed_ref=1 / me_range=32 / chroma_me=1 / trellis=2 / 8x8dct=1 / cqm=0 / deadzone=21,11 / fast_pskip=1 / chroma_qp_offset=-3 / threads=8 / lookahead_threads=1 / sliced_threads=0 / nr=0 / decimate=0 / interlaced=0 / bluray_compat=0 / constrained_intra=0 / bframes=11 / b_pyramid=2 / b_adapt=2 / b_bias=0 / direct=3 / weightb=1 / open_gop=0 / weightp=2 / keyint=230 / keyint_min=23 / scenecut=40 / intra_refresh=0 / rc=2pass / mbtree=0 / bitrate=6000 / ratetol=1.0 / qcomp=0.80 / qpmin=0 / qpmax=69 / qpstep=4 / cplxblur=20.0 / qblur=0.5 / ip_ratio=1.10 / pb_ratio=1.10 / aq=1:1.00
Default : Да
Forced : Нет

Аудио #1
Идентификатор : 2
Формат : AC-3
Формат/Информация : Audio Coding 3
Параметр Endianness формата : Big
Идентификатор кодека : A_AC3
Продолжительность : 1 ч. 33 м.
Вид битрейта : Постоянный
Битрейт : 384 Кбит/сек
Каналы : 6 каналов
Расположение каналов : Front: L C R, Side: L R, LFE
Частота : 48,0 КГц
Частота кадров : 31,250 кадров/сек (1536 SPF)
Битовая глубина : 16 бит
Метод сжатия : С потерями
Размер потока : 257 Мбайт (5%)
Default : Нет
Forced : Нет

Аудио #2
Идентификатор : 3
Формат : DTS
Формат/Информация : Digital Theater Systems
Режим : 16
Параметр Endianness формата : Big
Идентификатор кодека : A_DTS
Продолжительность : 1 ч. 33 м.
Вид битрейта : Постоянный
Битрейт : 1536 Кбит/сек
Каналы : 6 каналов
Расположение каналов : Front: L C R, Side: L R, LFE
Частота : 48,0 КГц
Частота кадров : 93,750 кадра/сек (512 SPF)
Битовая глубина : 16 бит
Метод сжатия : С потерями
Размер потока : 1,00 Гбайт (19%)
Заголовок : Original
Язык : English
Default : Да
Forced : Нет

pb.wtf



Скачать Убить Гюнтера через торрент http://i99.fastpic.ru/big/2018/0317/20/8d2df3ecbc8b6fedca02191abcdc0020.jpg Скачать фильм Убить Гюнтера через торрент бесплантно в хорошем качестве Описание: В мире профессиональных убийц существует свой рейтинг, и на его вершине находится некто Гюнтер. Никто не знает, как он выглядит, ... 9.1 10 10
Торрент: Зарегистрирован [2018-03-18 22:19] · скачан: 194 раз
Статус: √ проверено
Размер: 5.17 GB
Как cкачать? Как скачать Убить Гюнтера через торрент | UTorrent

% Раздел Тема Автор DL S | L
Фильмы [HD 720p, 1080p] (Хороший звук DUB, MVO) [ 5.61 GB ] Убить Гюнтера / Killing Gunther [2017 BDRip-HEVC 1080p ] MVO bober100 Скачать
1 | 0
Фильмы 2017 [DVDrip, WEB-DLRip, HDrip] (DUB, MVO) [ 1.46 GB ] Убить Гюнтера / Killing Gunther [2017 BDRip] [MVO] killermax2013 Скачать
1 | 0
T Релизы по Парсеру [Игры, Сериалы и Фильмы и другое...] [ 4.75 GB ] Убить Гюнтера / Killing Gunther [2017 BDRip 720p] MVO schultz Скачать
1 | 0
Фильмы (Blu-ray, BD-Remux, HDDVD) [ 16.89 GB ] Убить Гюнтера / Killing Gunther [2017 BD Remux 1080р] 2xMVO [MUZOBOZ] bober100 Скачать
1 | 0
Фильмы 2017 [DVDrip, WEB-DLRip, HDrip] (DUB, MVO) [ 2.22 GB ] Убить Гюнтера / Killing Gunther [2017 BDRip-AVC] MVO bober100 Скачать
2 | 0
Фильмы 2017 [DVDrip, WEB-DLRip, HDrip] (DUB, MVO) [ 1.42 GB ] Убить Гюнтера / Killing Gunther [2017 BDRip] MVO Twi7ter Скачать
2 | 0
Фильмы [HD 720p, 1080p] (Хороший звук DUB, MVO) [ 9.07 GB ] Убить Гюнтера / Killing Gunther [2017 BDRip 1080p] MVO bober100 Скачать
2 | 0

28-11-2019 20:33  

Отключить всю рекламу на сайте

    Дорогой пользователь! Огромная просьба, поблагодарите релизера, оцените раздачу и оставьте свои комментарий, если Вы скачали Убить Гюнтера через торрент бесплатно! Внесите свою лепту в развитие PiratBit!
    Комментировать посты могут только пользователи прошедшие не сложную регистрацию
    Показать сообщения:    

    Убить Гюнтера через торрент
    Скачать бесплатно Убить Гюнтера
    Убить Гюнтера скачать торрент
    Убить Гюнтера смотреть онлайн
    Cкачать фильм Убить Гюнтера бесплатно
    Убить Гюнтера скачать торрент в хорошем качестве
    Убить Гюнтера смотреть онлайн бесплатно в хорошем качестве


    Вы не можете начинать темы
    Вы не можете отвечать на сообщения
    Вы не можете редактировать свои сообщения
    Вы не можете удалять свои сообщения
    Вы не можете голосовать в опросах
    Вы не можете прикреплять файлы к сообщениям
    Вы можете скачивать файлы