Ссылка на приватное зеркало нашего сайта всего за 1$. Внимание количество ограничено!!!

2 сезон

iTunes

1 сезон

1

2 сезон

2 сезон

iTunes

1 сезон

RePack

30

Ultimate

ВАЖНО

ИГРА 18+

pack

RePack

MK11
pack

Забери бонус

RePack

jed

!!Акция!!

Alien_Rage

RePack

fifa19

RePack

Assassins Creed: Odyssey

RePack

NEED FOR SPEED™ PAYBACK

4 сезон

9 сезон

Бесстыжие 9 сезон

Все сериалы

все сериалы на PB.wtf

RePack

FAR CRY 5
  

Добро пожаловать, незнакомец / Welcome the Stranger (Джастин Келли) [2018, драма, детектив, WEB-DL 720p] MVO [Лицензия / iTunes] pb.wtf

Добро пожаловать, незнакомец через торрент pb.wtf

Размер: 3.15 GB | Добавлен: 2 года 8 мес. назад | Торрент скачан:25 раз
Скачать  

19-03-2018 02:03 Добро пожаловать, незнакомец Скачать торрент  

Добро пожаловать, незнакомец / Welcome the Stranger
Год выпуска: 2018
Страна: США
Жанр: драма, детектив
Продолжительность: 01:34:10
Перевод: Профессиональный многоголосый | Лицензия / iTunes
Субтитры: Русские, английские

Режиссер: Джастин Келли

rating

В ролях:

Райли Кио, Калеб Лэндри Джонс, Эбби Ли, Розмари Ховард, John Clofine

Описание:

Элис приезжает в дом к брату Итану, с которым не общалась уже много лет. Она надеется наладить с ним отношения, но тут в дело вмешивается подружка брата, Мисти. Странная и загадочная девушка Итана, видения и паранойя Элис и большой изолированный от всего мира дом заставляет героев по-новому оценить окружающую реальность.

Качество: WEB-DL 1080p
Формат: MKV

Видео: 1280x532 at 23.976 fps, MPEG-4 AVC, ~ 3931 kbps avg
Аудио#1: Russian: 48 kHz, AC3, 3/2 (L,C,R,l,r) + LFE ch, ~384.00 kbps avg
Аудио#2: English: 48 kHz, AC3, 3/2 (L,C,R,l,r) + LFE ch, ~384.00 kbps avg
скриншот   скриншот   скриншот  

Общее
Уникальный идентификатор : 254266513889223995021994359663170209496 (0xBF49F3050653392F828D14D49050C6D8)
Полное имя : D:\D06p0.p0zhaL0Bat.2O17.P.WEB-DL.720p.mkv
Формат : Matroska
Версия формата : Version 2
Размер файла : 3,15 Гбайт
Продолжительность : 1 ч. 34 м.
Общий поток : 4795 Кбит/сек
Название фильма : W_T_STRANGER_WEB_DL_1080p-BLUEBIRD
Дата кодирования : UTC 2018-03-18 23:42:55
Программа кодирования : mkvmerge v8.3.0 ('Over the Horizon') 64bit
Библиотека кодирования : libebml v1.3.1 + libmatroska v1.4.2

Видео
Идентификатор : 1
Формат : AVC
Формат/Информация : Advanced Video Codec
Профиль формата : High@L4.1
Параметр CABAC формата : Да
Параметр RefFrames формата : 4 кадра
Идентификатор кодека : V_MPEG4/ISO/AVC
Продолжительность : 1 ч. 34 м.
Битрейт : 3931 Кбит/сек
Ширина : 1280 пикселей
Высота : 532 пикселя
Соотношение сторон : 2,40:1
Режим частоты кадров : Постоянный
Частота кадров : 23,976 (24000/1001) кадра/сек
Цветовое пространство : YUV
Субдискретизация насыщенности : 4:2:0
Битовая глубина : 8 бит
Тип развёртки : Прогрессивная
Бит/(Пиксели*Кадры) : 0.241
Размер потока : 2,59 Гбайт (82%)
Язык : English
Default : Да
Forced : Нет

Аудио #1
Идентификатор : 2
Формат : AC-3
Формат/Информация : Audio Coding 3
Расширение режима : CM (complete main)
Параметр Endianness формата : Big
Идентификатор кодека : A_AC3
Продолжительность : 1 ч. 34 м.
Вид битрейта : Постоянный
Битрейт : 384 Кбит/сек
Каналы : 6 каналов
Расположение каналов : Front: L C R, Side: L R, LFE
Частота : 48,0 КГц
Частота кадров : 31,250 кадров/сек (1536 spf)
Метод сжатия : С потерями
Размер потока : 259 Мбайт (8%)
Заголовок : [MVO] DD 5.1 @ 384 kbps (iTunes)
Язык : Russian
Default : Да
Forced : Нет

Аудио #2
Идентификатор : 3
Формат : AC-3
Формат/Информация : Audio Coding 3
Расширение режима : CM (complete main)
Параметр Endianness формата : Big
Идентификатор кодека : A_AC3
Продолжительность : 1 ч. 34 м.
Вид битрейта : Постоянный
Битрейт : 384 Кбит/сек
Каналы : 6 каналов
Расположение каналов : Front: L C R, Side: L R, LFE
Частота : 48,0 КГц
Частота кадров : 31,250 кадров/сек (1536 spf)
Метод сжатия : С потерями
Размер потока : 259 Мбайт (8%)
Заголовок : [ORIGINAL] DD 5.1 @ 384 kbps (iTunes)
Язык : English
Default : Нет
Forced : Нет

Текст #1
Идентификатор : 4
Формат : UTF-8
Идентификатор кодека : S_TEXT/UTF8
Идентификатор кодека/Информация : UTF-8 Plain Text
Заголовок : Full-length
Язык : Russian
Default : Нет
Forced : Нет

Текст #2
Идентификатор : 5
Формат : UTF-8
Идентификатор кодека : S_TEXT/UTF8
Идентификатор кодека/Информация : UTF-8 Plain Text
Заголовок : Full-length
Язык : English
Default : Нет
Forced : Нет

Текст #3
Идентификатор : 6
Формат : UTF-8
Идентификатор кодека : S_TEXT/UTF8
Идентификатор кодека/Информация : UTF-8 Plain Text
Заголовок : Forced
Язык : Russian
Default : Да
Forced : Да

Меню
00:00:00.000 : en:1
00:05:47.889 : en:2
00:12:28.331 : en:3
00:18:59.513 : en:4
00:23:54.975 : en:5
00:30:28.702 : en:6
00:35:05.645 : en:7
00:42:41.726 : en:8
00:47:44.153 : en:9
00:54:41.069 : en:10
01:00:46.309 : en:11
01:06:26.732 : en:12
01:11:49.763 : en:13
01:20:59.312 : en:14
01:24:25.351 : en:15
01:28:11.118 : en:16

pb.wtf



Скачать Добро пожаловать, незнакомец через торрент http://pic1.kartinco.top/images/11/sdqm7.jpg Скачать фильм Добро пожаловать, незнакомец через торрент бесплантно в хорошем качестве Описание: Элис приезжает в дом к брату Итану, с которым не общалась уже много лет. Она надеется наладить с ним отношения, но тут в дело ... 7 10 4
Торрент: Зарегистрирован [2018-03-19 02:03] · скачан: 25 раз
Статус: √ проверено
Размер: 3.15 GB
Как cкачать? Как скачать Добро пожаловать, незнакомец через торрент | qTorrent

% Раздел Тема Автор DL S | L
Фильмы 2018 [DVDrip, WEB-DLRip, HDrip] (DUB, MVO) [ 1.46 GB ] Добро пожаловать незнакомец / Welcome the Stranger [2018 WEB-DLRip-AVC] MVO bober100 Скачать
1 | 0
Фильмы 2018 [DVDrip, WEB-DLRip, HDrip] (DUB, MVO) [ 1.45 GB ] Добро пожаловать незнакомец / Welcome the Stranger [2018 WEB-DLRip] MVO bober100 Скачать
1 | 0
Фильмы (WEB-DL 720p, 1080p) [ 3.52 GB ] Добро пожаловать незнакомец / Welcome the Stranger [2018 WEB-DL 1080p] MVO bober100 Скачать
1 | 0

28-11-2019 20:33  

Отключить всю рекламу на сайте

    Дорогой пользователь! Огромная просьба, поблагодарите релизера, оцените раздачу и оставьте свои комментарий, если Вы скачали Добро пожаловать, незнакомец через торрент бесплатно! Внесите свою лепту в развитие PiratBit!
    Комментировать посты могут только пользователи прошедшие не сложную регистрацию
    Показать сообщения:    

    Добро пожаловать, незнакомец через торрент
    Скачать бесплатно Добро пожаловать, незнакомец
    Добро пожаловать, незнакомец скачать торрент
    Добро пожаловать, незнакомец смотреть онлайн
    Cкачать фильм Добро пожаловать, незнакомец бесплатно
    Добро пожаловать, незнакомец скачать торрент в хорошем качестве
    Добро пожаловать, незнакомец смотреть онлайн бесплатно в хорошем качестве


    Вы не можете начинать темы
    Вы не можете отвечать на сообщения
    Вы не можете редактировать свои сообщения
    Вы не можете удалять свои сообщения
    Вы не можете голосовать в опросах
    Вы не можете прикреплять файлы к сообщениям
    Вы можете скачивать файлы