новый адрес пиратбит piratbit
Мега распродажа FORZA HORIZON 4 ULTIMATE+ВСЕ DLC+ОНЛАЙН всего за 499р. 349 руб. (супер цена). Внимание количество ограничено!!!

iTunes

1+1

iTunes

мы

iTunes

1

iTunes

Чернобыль

iTunes

Ральф против интернета

Лицензия

ПШазам

Лицензия

Игра престолов

Лицензия

30
pack

ВАЖНО

!!Акция!!

Alien_RageХит недели

RePack

Resident Evil 21

ИГРА 18+

pack

RePack

Metro:Exodus

!!Акция!!

Alien_Rage

RePack

fifa19

RePack

Assassins Creed: Odyssey

RePack

NEED FOR SPEED™ PAYBACK

3 сезон

9 сезон

Бесстыжие 9 сезон

Все сериалы

все сериалы на PB.wtf

RePack

FAR CRY 5
Ребята, катастрофически не хватает 1900р. для оплаты серверов за Октябрь (всвязи с блокировками трафик упал в 3 раза), 1-2р., выручайте.
  

Селфи (Николай Хомерики) [2018, триллер, драма, WEB-DLRip-AVC] [iTunes] - ExKinoRay pb.wtf

Селфи через торрент pb.wtf

Размер: 1.48 GB | Добавлен: 1 год 7 мес. назад | Торрент скачан:636 раз
Скачать  

19-03-2018 03:27 Селфи Скачать торрент  

Информация о фильме
Название: Селфи
Год выхода: 2018
Жанр: Триллер, драма
Страна: Россия
Студия: Art Pictures Studio, Кинослово
Продолжительность: 01:49:51
Язык: Русский | iTunes
Режиссер: Николай Хомерики
В ролях: Константин Хабенский, Юлия Хлынина, Фёдор Бондарчук, Анна Михалкова, Северия Янушаускайте, Михаил Мухтасипов, Александра Велескевич, Сергей Бондаренко, Андрей Гринев, Марина Калецкая

Описание:
Он полностью копировал его — жесты, мимика, даже шутил так, что никто не заподозрил подмены. Богданов смотрел в экран, как в зеркало. Двойник вел его телепередачу, встречался с его фанатами-читателями, жил с его женщинами, выпивал в баре с его друзьями… Это произошло вмиг — раз — тебя стерли, твою личность, и тут бессильны лучшие психоаналитики. Публичный и успешный, остроумный и циничный, Богданов лишился всего, чего добивался годами, выстраивая свою карьеру и жизнь. И теперь он отчетливо понимал: копия лучше и честнее его самого, битва за себя проиграна. И только дочь хочет вернуть истинного Богданова…

rating

Файл
Формат: MKV
Качество: WEB-DLRip-AVC
Видео: MPEG-4 AVC, 1024x384 (2.667:1), 25.000 fps, 1549 Kbps, 0.158 bit/pixel
Аудио: 48 kHz, AC3, 5.1 ch, ~384 kbps avg
General
Unique ID : 222290000436794508712326769197519266337 (0xA73B7F2F7558789B8ED8F51E634CE221)
Complete name : D:\Selfi.2018.WEB-DLRip.AVC.ExKinoRay.mkv
Format : Matroska
Format version : Version 2
File size : 1.48 GiB
Duration : 1 h 49 min
Overall bit rate : 1 934 kb/s
Movie name : Selfi 2018 from ExKinoRay
Encoded date : UTC 2018-03-19 03:04:31
Writing application : mkvmerge v5.6.0 ('Kenya Kane') built on May 27 2012 16:44:04
Writing library : libebml v1.2.3 + libmatroska v1.3.0

Video
ID : 1
Format : AVC
Format/Info : Advanced Video Codec
Format profile : High@L4.1
Format settings, CABAC : Yes
Format settings, ReFrames : 10 frames
Codec ID : V_MPEG4/ISO/AVC
Duration : 1 h 49 min
Bit rate : 1 549 kb/s
Width : 1 024 pixels
Height : 384 pixels
Display aspect ratio : 2.667
Frame rate mode : Constant
Frame rate : 25.000 FPS
Color space : YUV
Chroma subsampling : 4:2:0
Bit depth : 8 bits
Scan type : Progressive
Bits/(Pixel*Frame) : 0.158
Stream size : 1.16 GiB (78%)
Title : Enigma
Writing library : x264 core 152 r2851 ba24899
Encoding settings : cabac=1 / ref=10 / deblock=1:-2:-2 / analyse=0x3:0x113 / me=umh / subme=11 / psy=1 / psy_rd=1.05:0.10 / mixed_ref=1 / me_range=32 / chroma_me=1 / trellis=2 / 8x8dct=1 / cqm=0 / deadzone=21,11 / fast_pskip=0 / chroma_qp_offset=-3 / threads=12 / lookahead_threads=3 / sliced_threads=0 / nr=0 / decimate=0 / interlaced=0 / bluray_compat=0 / constrained_intra=0 / bframes=12 / b_pyramid=2 / b_adapt=2 / b_bias=0 / direct=3 / weightb=1 / open_gop=0 / weightp=2 / keyint=250 / keyint_min=25 / scenecut=40 / intra_refresh=0 / rc_lookahead=40 / rc=2pass / mbtree=0 / bitrate=1549 / ratetol=1.0 / qcomp=0.60 / qpmin=0 / qpmax=51 / qpstep=4 / cplxblur=20.0 / qblur=0.5 / vbv_maxrate=50000 / vbv_bufsize=62500 / nal_hrd=none / filler=0 / ip_ratio=1.40 / pb_ratio=1.30 / aq=1:1.00
Language : English
Default : Yes
Forced : No
Color range : Limited
Color primaries : BT.709
Transfer characteristics : BT.709
Matrix coefficients : BT.709

Audio
ID : 2
Format : AC-3
Format/Info : Audio Coding 3
Mode extension : CM (complete main)
Format settings, Endianness : Big
Codec ID : A_AC3
Duration : 1 h 49 min
Bit rate mode : Constant
Bit rate : 384 kb/s
Channel(s) : 6 channels
Channel positions : Front: L C R, Side: L R, LFE
Sampling rate : 48.0 kHz
Frame rate : 31.250 FPS (1536 spf)
Compression mode : Lossy
Stream size : 302 MiB (20%)
Title : (iTunes)
Language : Russian
Default : Yes
Forced : No

Menu
00:00:00.000 : en:Глава 1
00:08:39.000 : en:Глава 2
00:14:04.040 : en:Глава 3
00:22:09.560 : en:Глава 4
00:26:45.720 : en:Глава 5
00:31:21.800 : en:Глава 6
00:36:19.880 : en:Глава 7
00:42:43.040 : en:Глава 8
00:47:45.320 : en:Глава 9
00:53:22.640 : en:Глава 10
00:58:17.040 : en:Глава 11
01:03:07.560 : en:Глава 12
01:09:49.160 : en:Глава 13
01:15:08.200 : en:Глава 14
01:23:32.960 : en:Глава 15
01:29:31.280 : en:Глава 16
01:33:51.239 : en:Глава 17
01:38:57.959 : en:Глава 18
Релиз от:

Автор релиза: pb.wtf



Скачать Селфи через торрент http://img12.lostpic.net/2018/03/18/73fa3ab3b0620eef9a9d5952c0f0a2d5.png Скачать фильм Селфи через торрент бесплантно в хорошем качестве Описание: Он полностью копировал его — жесты, мимика, даже шутил так, что никто не заподозрил подмены. Богданов смотрел в экран, как в ... 9.8 10 13
Info! Золотая раздача, скачанное не засчитывается.
Торрент: Зарегистрирован [2018-03-19 03:27] · скачан: 636 раз
Статус: √ проверено
Размер: 1.48 GB
Как cкачать? Как скачать Селфи через торрент | qTorrent


>> Регистрируемся здесь <<






Отзывы и комментарии о схеме читаем и пишем здесь: ---> Отзывы и комментарии о схеме

Новые благодарочки в телеграм довольных пользователей:
скриншот   скриншот   скриншот   скриншот   скриншот
    Дорогой пользователь! Огромная просьба, поблагодарите релизера, оцените раздачу и оставьте свои комментарий, если Вы скачали Селфи через торрент бесплатно! Внесите свою лепту в развитие PiratBit!
    Комментировать посты могут только пользователи прошедшие не сложную регистрацию
    Показать сообщения:    

    Селфи через торрент
    Скачать бесплатно Селфи
    Селфи скачать торрент
    Селфи смотреть онлайн
    Cкачать фильм Селфи бесплатно
    Селфи скачать торрент в хорошем качестве
    Селфи смотреть онлайн бесплатно в хорошем качестве


    Вы не можете начинать темы
    Вы не можете отвечать на сообщения
    Вы не можете редактировать свои сообщения
    Вы не можете удалять свои сообщения
    Вы не можете голосовать в опросах
    Вы не можете прикреплять файлы к сообщениям
    Вы можете скачивать файлы