Ссылка на приватное зеркало нашего сайта всего за 1$. Внимание количество ограничено!!!

2 сезон

iTunes

1 сезон

1

iTunes

iTunes

iTunes

1 сезон

RePack

30

ИГРА 18+

pack

ВАЖНО

!!Акция!!

Alien_RageХит недели

RePack

MK11
pack

Забери бонус

RePack

jed

!!Акция!!

Alien_Rage

RePack

fifa19

RePack

Assassins Creed: Odyssey

RePack

NEED FOR SPEED™ PAYBACK

4 сезон

9 сезон

Бесстыжие 9 сезон

Все сериалы

все сериалы на PB.wtf

RePack

FAR CRY 5
  

Ивановы-Ивановы / Сезон: 2 / Серии 1-20 из 20 (Антон Федотов) [2018 г., комедия, WEB-DL 720p] pb.wtf

Ивановы-Ивановы через торрент pb.wtf

Размер: 12.53 GB | Добавлен: 2 года 6 мес. назад | Торрент скачан:491 раз
Скачать  

19-03-2018 04:01 Ивановы-Ивановы Скачать торрент  

Ивановы-Ивановы
  • Год выпуска: 2018
  • Страна: Россия
  • Жанр: комедия
  • Продолжительность: ~ 00:25:00 (Серия)
  • Перевод: Не требуется
  • Режиссер: Антон Федотов

  • В ролях:
    Семён Трескунов, Сергей Бурунов, Михаил Трухин, Александра Флоринская, Анна Уколова, Юрий Ицков, Алексей Лукин



  • Герои — две российские семьи Ивановых. Они не знакомы друг с другом, у них разный достаток и круг интересов. Одни — бедны и провинциальны, вторые — более чем обеспеченны и высокомерны. Они были бы счастливы прожить жизнь, ничего не зная друг о друге, но в один прекрасный день выясняется, что много лет назад наследников этих семей перепутали в роддоме, и все эти годы сын бедняков обитал в шикарном особняке, а отпрыск богатых Ивановых ютился в малогабаритной квартире. Конечно, теперь все хотят получить обратно своих кровных наследников.
  • Качество: WEB-DL 720p
  • Формат: : MKV
  • Видео кодек: AVC
  • Аудио кодек: AC-3
  • Видео: 3500 Кбит/сек, 1280*720 (16:9), в 25,000 кадров/сек, AVC
  • Аудио: 192 Кбит/сек, 44,1 КГц, 16 бит, 2 канала, AC-3
  • Релиз от: Files-x
    Внимание! Раздача ведётся путём добавления новых серий; при каждом добавлении создаётся новый торрент. Чтобы начать докачку новой серии, пользователям необходимо сделать следующее:
    (1) остановить скачивание,
    (2) удалить старый торрент у себя из клиента (старые серии удалять не надо),
    (3) скачать новый торрент и запустить его у себя в клиенте вместо старого, при этом указать клиенту путь в старую папку куда и должно происходить скачивание новых серий.
    Ваш клиент при этом должен произвести хеширование (проверку) старой папки (если не производит сам - помогите ему сделать это), и будет докачивать только те серии которых у вас ещё нет. Старые серии при этом не удаляются, а продолжают раздаваться!
    Eсли вы уже удалили старые серии, то предотвратить повторную закачку старых серий можно, отжав галочку в соответствующих местах при запуске нового торрента. По возможности, желательно не удалять старые серии как можно дольше чтобы релизёр не столько продолжал раздавать старые серии, а смог сконцентрироваться на новых.
    Общее
    Уникальный идентификатор : 110468462673809659546077545856522223176 (0x531B73B7696925CA07285E09F9F77E48)
    Полное имя : F:\Ivanovy.Ivanovy.02.2018.WEB-DL.720.Files-x\04. Ivanovy.Ivanovy.02.2018.WEB-DL.720.Files-x.mkv
    Формат : Matroska
    Версия формата : Version 4 / Version 2
    Размер файла : 634 Мбайт
    Продолжительность : 24 м. 5 с.
    Общий поток : 3677 Кбит/сек
    Программа кодирования : Lavf56.25.101
    Библиотека кодирования : Lavf56.25.101

    Видео
    Идентификатор : 1
    Формат : AVC
    Формат/Информация : Advanced Video Codec
    Профиль формата : High@L4.1
    Настройки формата : CABAC / 5 Ref Frames
    Параметр CABAC формата : Да
    Параметр RefFrames формата : 5 кадров
    Идентификатор кодека : V_MPEG4/ISO/AVC
    Продолжительность : 24 м. 5 с.
    Битрейт : 3500 Кбит/сек
    Ширина : 1280 пикселей
    Высота : 720 пикселей
    Соотношение сторон : 16:9
    Режим частоты кадров : Постоянный
    Частота кадров : 25,000 кадров/сек
    Цветовое пространство : YUV
    Субдискретизация насыщенности : 4:2:0
    Битовая глубина : 8 бит
    Тип развёртки : Прогрессивная
    Бит/(Пиксели*Кадры) : 0.152
    Размер потока : 588 Мбайт (93%)
    Библиотека кодирования : x264 core 148
    Настройки программы : cabac=1 / ref=5 / deblock=1:0:0 / analyse=0x3:0x113 / me=hex / subme=8 / psy=1 / psy_rd=1.00:0.00 / mixed_ref=1 / me_range=16 / chroma_me=1 / trellis=2 / 8x8dct=1 / cqm=0 / deadzone=21,11 / fast_pskip=1 / chroma_qp_offset=-2 / threads=1 / lookahead_threads=1 / sliced_threads=0 / nr=0 / decimate=1 / interlaced=0 / bluray_compat=0 / constrained_intra=0 / bframes=3 / b_pyramid=2 / b_adapt=1 / b_bias=0 / direct=3 / weightb=1 / open_gop=0 / weightp=2 / keyint=250 / keyint_min=25 / scenecut=0 / intra_refresh=0 / rc_lookahead=50 / rc=abr / mbtree=1 / bitrate=3500 / ratetol=1.0 / qcomp=0.60 / qpmin=0 / qpmax=69 / qpstep=4 / ip_ratio=1.40 / aq=1:1.00
    Default : Да
    Forced : Нет

    Аудио
    Идентификатор : 2
    Формат : AC-3
    Формат/Информация : Audio Coding 3
    Идентификатор кодека : A_AC3
    Продолжительность : 24 м. 5 с.
    Вид битрейта : Постоянный
    Битрейт : 192 Кбит/сек
    Каналы : 2 канала
    Расположение каналов : Front: L R
    Частота : 44,1 КГц
    Частота кадров : 28,711 кадров/сек (1536 SPF)
    Битовая глубина : 16 бит
    Метод сжатия : С потерями
    Задержка видео : -80 мс.
    Размер потока : 33,1 Мбайт (5%)
    Язык : unknown
    ServiceKind/String : Complete Main
    Default : Да
    Forced : Нет

    Скриншоты:
    скриншот   скриншот   скриншот   скриншот   скриншот   скриншот   скриншот  
    скриншот  

    Раздача ведётся путём добавления новых серий. Добавлена 20 серия (19.04.2018).Просьба перекачать торрент файл.

    pb.wtf



  • Скачать Ивановы-Ивановы через торрент http://pic1.kartinco.top/images/11/dug8w.jpg Скачать фильм Ивановы-Ивановы через торрент бесплантно в хорошем качестве qw.png Герои — две российские семьи Ивановых. Они не знакомы друг с другом, у них разный достаток и круг интересов. Одни — бедны и ... 9.9 10 32
    Info! Золотая раздача, скачанное не засчитывается.
    Торрент: Зарегистрирован [2018-04-19 11:37] · скачан: 491 раз
    Статус: √ проверено
    Размер: 12.53 GB
    Как cкачать? Как скачать Ивановы-Ивановы через торрент | qTorrent

    % Раздел Тема Автор DL S | L
    Наши сериалы [ 5.89 GB ] Ивановы-Ивановы / Сезон: 2 / Серии 1-20 из 20 [2018 WEB-DLRip] GEKADOL Скачать
    1 | 0
    Наши сериалы [ 22.61 GB ] Ивановы-Ивановы / Сезон: 2 / Серии 1-20 из 20 [2018 WEB-DL 1080p] GEKADOL Скачать
    1 | 0
    Наши сериалы [ 6.12 GB ] Ивановы-Ивановы / Сезон: 2 / Серии: 1-20 из 20 [2018 WEB-DLRip-AVC] bober100 Скачать
    2 | 0


    Последний раз редактировалось: GEKADOL (2018-04-19 11:46), всего редактировалось 17 раз(а)

    28-11-2019 20:33  

    Отключить всю рекламу на сайте

    29-03-2018 17:12 Ивановы-Ивановы Скачать торрент  

    сегодня новые серии будут?pb.wtf



    02-04-2018 14:30 Ивановы-Ивановы Скачать торрент  

    Ждём новых серий спасибо за релиз )) Дед в фильме угарный )))pb.wtf



    05-04-2018 14:27 Ивановы-Ивановы Скачать торрент  

    Заменена 12.pb.wtf



    19-04-2018 14:13 Ивановы-Ивановы Скачать торрент  

    еееееее,будет продолжение pb.wtf



      Дорогой пользователь! Огромная просьба, поблагодарите релизера, оцените раздачу и оставьте свои комментарий, если Вы скачали Ивановы-Ивановы через торрент бесплатно! Внесите свою лепту в развитие PiratBit!
      Комментировать посты могут только пользователи прошедшие не сложную регистрацию
      Показать сообщения:    

      Ивановы-Ивановы через торрент
      Скачать бесплатно Ивановы-Ивановы
      Ивановы-Ивановы скачать торрент
      Ивановы-Ивановы смотреть онлайн
      Cкачать фильм Ивановы-Ивановы бесплатно
      Ивановы-Ивановы скачать торрент в хорошем качестве
      Ивановы-Ивановы смотреть онлайн бесплатно в хорошем качестве


      Вы не можете начинать темы
      Вы не можете отвечать на сообщения
      Вы не можете редактировать свои сообщения
      Вы не можете удалять свои сообщения
      Вы не можете голосовать в опросах
      Вы не можете прикреплять файлы к сообщениям
      Вы можете скачивать файлы