Ссылка на приватное зеркало всего за 1$. Внимание количество ограничено!!!

OK

1+1

iTunes

мы

OK

1

WEB-DLRip

Джокер

Пифагор

Ведьмак / The Witcher сериал

Лицензия

ПШазам

ОК

Оно 2

iTunes

30
pack

Вам бонус

ВАЖНО

!!Акция!!

Alien_RageХит недели

RePack

Resident Evil 21

ИГРА 18+

pack

RePack

jed

RePack

fifa19

RePack

Assassins Creed: Odyssey

RePack

NEED FOR SPEED™ PAYBACK

4 сезон

9 сезон

Бесстыжие 9 сезон

Все сериалы

все сериалы на PB.wtf

RePack

FAR CRY 5
  

Недвижимость / Toppen av ingenting (Манс Манссон, Аксель Петерсен) [2018, драма, BDRip 720p] MVO ["Синема УС"] pb.wtf

Недвижимость через торрент pb.wtf

Размер: 3.83 GB | Добавлен: 1 год 10 мес. назад | Торрент скачан:6 раз
Скачать  

19-03-2018 07:33 Недвижимость Скачать торрент  

Недвижимость / Toppen av ingentingГод выпуска: 2018
Страна: Швеция, Великобритания
Жанр: драма
Продолжительность: 01:29:47
Перевод: Любительский (многоголосый) | "Синема УС"
Субтитры: отсутствуют

Режиссер: Манс Манссон, Аксель Петерсен

rating

В ролях:

Леоноре Экстранд, Кристер Левин, Кристиан Салдерт, Олоф Родин, Карл Йохан Мернер, Дон Беннечи, Анна Эклунд, Стефан Хюн, Эрика Коко Страндмарк, Густав Моэль

Описание:

68-летняя Нуйет десятилетиями перебивалась с хлеба на воду. После смерти отца она наследует многоквартирный дом в центре Стокгольма. Предприятие, обещавшее обернуться выгодным дельцем, превращается в настоящее проклятие.

Качество: BDRip 720p
Формат: MKV
Видео кодек: H.264
Аудио кодек: AC3

Видео: 5664 Kb/s, 1280x720
Аудио#1: Русский, (AC3, 2 ch, 448 Кбит/с)
скриншот  скриншот  скриншот  

Общее
Уникальный идентификатор : 186766785538925585983710988659311136204 (0x8C81F97816586ACCB80F10E5372E4DCC)
Полное имя : D:\The.Real.Estate.2018.P.BDRip.72Op_KOSHARA.mkv
Формат : Matroska
Версия формата : Version 2
Размер файла : 3,83 Гбайт
Продолжительность : 1 ч. 29 м.
Режим общего битрейта : Переменный
Общий поток : 6113 Кбит/сек
Дата кодирования : UTC 2018-03-18 20:55:47
Программа кодирования : mkvmerge v8.3.0 ('Over the Horizon') 64bit
Библиотека кодирования : libebml v1.3.1 + libmatroska v1.4.2

Видео
Идентификатор : 1
Формат : AVC
Формат/Информация : Advanced Video Codec
Профиль формата : High@L4.1
Параметр CABAC формата : Да
Параметр RefFrames формата : 4 кадра
Идентификатор кодека : V_MPEG4/ISO/AVC
Продолжительность : 1 ч. 29 м.
Вид битрейта : Переменный
Битрейт : 5664 Кбит/сек
Максимальный битрейт : 6500 Кбит/сек
Ширина : 1280 пикселей
Высота : 720 пикселей
Соотношение сторон : 16:9
Режим частоты кадров : Постоянный
Частота кадров : 23,976 (24000/1001) кадра/сек
Стандарт вещания : Component
Цветовое пространство : YUV
Субдискретизация насыщенности : 4:2:0
Битовая глубина : 8 бит
Тип развёртки : Прогрессивная
Бит/(Пиксели*Кадры) : 0.251
Размер потока : 3,48 Гбайт (91%)
Default : Да
Forced : Нет
Цветовой диапазон : Limited
Основные цвета : BT.709
Характеристики трансфера : BT.709
Коэффициенты матрицы : BT.709

Аудио
Идентификатор : 2
Формат : AC-3
Формат/Информация : Audio Coding 3
Расширение режима : CM (complete main)
Параметр Endianness формата : Big
Идентификатор кодека : A_AC3
Продолжительность : 1 ч. 29 м.
Вид битрейта : Постоянный
Битрейт : 448 Кбит/сек
Каналы : 2 канала
Расположение каналов : Front: L R
Частота : 48,0 КГц
Частота кадров : 31,250 кадров/сек (1536 spf)
Метод сжатия : С потерями
Размер потока : 288 Мбайт (7%)
Default : Да
Forced : Нет

pb.wtf



Скачать Недвижимость через торрент http://img11.lostpic.net/2018/03/19/1e145a026728c377cab80063efcbcb6c.jpg Скачать фильм Недвижимость через торрент бесплантно в хорошем качестве Описание: 68-летняя Нуйет десятилетиями перебивалась с хлеба на воду. После смерти отца она наследует многоквартирный дом в центре ... 10 10 2
Торрент: Зарегистрирован [2018-03-19 07:33] · скачан: 6 раз
Статус: # сомнительно
Размер: 3.83 GB
Как cкачать? Как скачать Недвижимость через торрент | qTorrent

% Раздел Тема Автор DL S | L
T Фильмы (мультфильмы) cо спонсором показа (Новинки AVI/MKV) [ 1.37 GB ] Недвижимость / Toppen av ingenting [2018 HDRip] MVO ["Синема УС"] bober100 Скачать
1 | 0

28-11-2019 20:33  

Отключить всю рекламу на сайте

    Дорогой пользователь! Огромная просьба, поблагодарите релизера, оцените раздачу и оставьте свои комментарий, если Вы скачали Недвижимость через торрент бесплатно! Внесите свою лепту в развитие PiratBit!
    Комментировать посты могут только пользователи прошедшие не сложную регистрацию
    Показать сообщения:    

    Недвижимость через торрент
    Скачать бесплатно Недвижимость
    Недвижимость скачать торрент
    Недвижимость смотреть онлайн
    Cкачать фильм Недвижимость бесплатно
    Недвижимость скачать торрент в хорошем качестве
    Недвижимость смотреть онлайн бесплатно в хорошем качестве


    Вы не можете начинать темы
    Вы не можете отвечать на сообщения
    Вы не можете редактировать свои сообщения
    Вы не можете удалять свои сообщения
    Вы не можете голосовать в опросах
    Вы не можете прикреплять файлы к сообщениям
    Вы можете скачивать файлы