новый адрес пиратбит piratbit
Мега распродажа FORZA HORIZON 4 ULTIMATE+ВСЕ DLC+ОНЛАЙН всего за 499р. 349 руб. (супер цена). Внимание количество ограничено!!!

iTunes

1+1

iTunes

мы

iTunes

1

iTunes

Чернобыль

iTunes

Ральф против интернета

Лицензия

ПШазам

Лицензия

Игра престолов

Лицензия

30
pack

ВАЖНО

!!Акция!!

Alien_RageХит недели

RePack

Resident Evil 21

ИГРА 18+

pack

RePack

Metro:Exodus

!!Акция!!

Alien_Rage

RePack

fifa19

RePack

Assassins Creed: Odyssey

RePack

NEED FOR SPEED™ PAYBACK

3 сезон

9 сезон

Бесстыжие 9 сезон

Все сериалы

все сериалы на PB.wtf

RePack

FAR CRY 5
Ребята, катастрофически не хватает 1900р. для оплаты серверов за Октябрь (всвязи с блокировками трафик упал в 3 раза), 1-2р., выручайте.
  

Пиковая дама (Роман Тихомиров) [1960, СССР, музыкальный фильм, экранизация, DVDRip от AVP Studio] pb.wtf

Пиковая дама через торрент pb.wtf

Размер: 1.46 GB | Добавлен: 1 год 7 мес. назад | Торрент скачан:10 раз
Скачать  

19-03-2018 07:52 Пиковая дама Скачать торрент  

Пиковая дама
Страна: СССР
Производство: Ленфильм

Жанр: музыкальный фильм, экранизация
Год выпуска: 1960
Продолжительность: 01:41:18

Перевод: Не требуется
Cубтитры: нет
Оригинальная аудиодорожка: русский

Режиссер: Роман Тихомиров

В ролях:
Олег Стриженов, Ольга Красина, Елена Полевицкая, Валентин Кулик, Вадим Медведев, Ирина Губанова, Александр Густавсон, Иван Дарьялов, Владимир Косарев, Андрей Олеванов, Дмитрий Радлов, Юрий Соловов...
Об актёрах подробней

Описание:
По одноименной повести А.С.Пушкина и опере П.И.Чайковского.
Премьера оперы "Пиковая дама" состоялась в Мариинском театре 7 (19) декабря 1890 года и имела огромный успех. При этом опера была создана Чайковским за предельно короткий срок - в сорок четыре дня. И, по словам композитора, писалась "с самозабвением и наслаждением".

Источник: DVD9 R5
Качество видео: DVDRip
Формат видео: AVI

Видео: 704x496 (1,419:1), 25,000 кадров/сек, XviD ~ 1604 kbps avg, 0.184 bit/pixel
Аудио: 48 kHz, Dolby Digital AC3 5.1, 448 kbps

Раздача от:
Общее
Полное имя : Pikovaya.dama.1960.DVDRip_[New-team]_by_AVP_Studio.avi
Формат : AVI
Формат/Информация : Audio Video Interleave
Размер файла : 1,46 Гбайт
Продолжительность : 1 ч. 41 м.
Общий поток : 2062 Кбит/сек
Программа кодирования : VirtualDubMod 1.5.10.3 | www.virtualdub-fr.org || (build 2550/release)
Библиотека кодирования : VirtualDubMod build 2550/release

Видео
Идентификатор : 0
Формат : MPEG-4 Visual
Профиль формата : Advanced Simple@L5
Настройки формата : BVOP1 / Custom Matrix
Параметр BVOP формата : 1
Параметр QPel формата : Нет
Параметр GMC формата : Без точки перехода
Параметр матрицы формата : Выборочная
Идентификатор кодека : XVID
Идентификатор кодека/Подсказка : XviD
Продолжительность : 1 ч. 41 м.
Битрейт : 1604 Кбит/сек
Ширина : 704 пикселя
Высота : 496 пикселей
Соотношение сторон : 1,419
Частота кадров : 25,000 кадров/сек
Цветовое пространство : YUV
Субдискретизация насыщенности : 4:2:0
Битовая глубина : 8 бит
Тип развёртки : Прогрессивная
Метод сжатия : С потерями
Бит/(Пиксели*Кадры) : 0.184
Размер потока : 1,13 Гбайт (78%)
Библиотека кодирования : XviD 73

Аудио
Идентификатор : 1
Формат : AC-3
Формат/Информация : Audio Coding 3
Идентификатор кодека : 2000
Продолжительность : 1 ч. 41 м.
Вид битрейта : Постоянный
Битрейт : 448 Кбит/сек
Каналы : 6 каналов
Расположение каналов : Front: L C R, Side: L R, LFE
Частота : 48,0 КГц
Частота кадров : 31,250 кадров/сек (1536 SPF)
Битовая глубина : 16 бит
Метод сжатия : С потерями
Размер потока : 325 Мбайт (22%)
Выравнивание : Разделение по промежуткам
Продолжительность промежутка : 40 мс. (1,00 видеокадр)
Время предзагрузки промежутка : 500 мс
pb.wtf



Скачать Пиковая дама через торрент http://picplus.ru/img/1803/14/52aedcb6.png Скачать фильм Пиковая дама через торрент бесплантно в хорошем качестве Описание:По одноименной повести А.С.Пушкина и опере П.И.Чайковского.Премьера оперы "Пиковая дама" состоялась в Мариинском театре 7 (19) ... 5 10 1
Info! Золотая раздача, скачанное не засчитывается.
Торрент: Зарегистрирован [2018-03-19 07:52] · скачан: 10 раз
Статус: √ проверено
Размер: 1.46 GB
Как cкачать? Как скачать Пиковая дама через торрент | qTorrent

% Раздел Тема Автор DL S | L
Наши новые фильмы 2018-2019 [ 1.46 GB ] Пиковая дама: Зазеркалье [2019 BDRip] [Русский] [] Twi7ter Скачать
31 | 3
Наши фильмы (HD, WEB-DL 720p, 1080p) [ 8.21 GB ] Пиковая дама: Зазеркалье [2019 BDRip 1080p] GER Transfer | - ExKinoRay Enigma2010 Скачать
25 | 2
Наши фильмы (HD, WEB-DL 720p, 1080p) [ 2.9 GB ] Пиковая дама: Зазеркалье [2019 BDRip 720p] GER Transfer | - ExKinoRay Enigma2010 Скачать
53 | 3
Наши фильмы (Blu-ray, BD-Remux, HDDVD) [ 13.96 GB ] Пиковая дама: Зазеркалье [2019 BDRemux 1080p] [ / GER Transfer] bober100 Скачать
3 | 0
T Наши фильмы (мультфильмы) cо спонсором показа (Новинки AVI/MKV) [ 3.44 GB ] Пиковая дама: Зазеркалье [2019 WEB-DL 720p] bober100 Скачать
1 | 0
Наши фильмы (HD, WEB-DL 720p, 1080p) [ 7.16 GB ] Пиковая дама: Черный обряд [2015 BDRip 1080p] [GER Transfer] [] bober100 Скачать
1 | 0


>> Регистрируемся здесь <<






Отзывы и комментарии о схеме читаем и пишем здесь: ---> Отзывы и комментарии о схеме

Новые благодарочки в телеграм довольных пользователей:
скриншот   скриншот   скриншот   скриншот   скриншот
    Дорогой пользователь! Огромная просьба, поблагодарите релизера, оцените раздачу и оставьте свои комментарий, если Вы скачали Пиковая дама через торрент бесплатно! Внесите свою лепту в развитие PiratBit!
    Комментировать посты могут только пользователи прошедшие не сложную регистрацию
    Показать сообщения:    

    Пиковая дама через торрент
    Скачать бесплатно Пиковая дама
    Пиковая дама скачать торрент
    Пиковая дама смотреть онлайн
    Cкачать фильм Пиковая дама бесплатно
    Пиковая дама скачать торрент в хорошем качестве
    Пиковая дама смотреть онлайн бесплатно в хорошем качестве


    Вы не можете начинать темы
    Вы не можете отвечать на сообщения
    Вы не можете редактировать свои сообщения
    Вы не можете удалять свои сообщения
    Вы не можете голосовать в опросах
    Вы не можете прикреплять файлы к сообщениям
    Вы можете скачивать файлы