Присоединяйтесь к нам в Telegram!, здесь всегда актуальный адрес сайта, оперативная поддержка и многое другое!!

>

5.9

iTunes

7.4

iTunes

9.4

1 сезон

1

7.4

2 сезон

7.2

iTunes

7.3

1 сезон

13

6.1

iTunes

8.3

GOG

30

ULTIMATE

pack

9.9

Лицензия

ВАЖНО

ИГРА 18+

pack

7.3

RePack

MK11

7.7

RePack

jed

7.8

RePack

fifa19

8.5

RePack

RDR2

RePack

NEED FOR SPEED™ PAYBACK

5 сезон

9 сезон

Бесстыжие 9 сезон

Все сериалы

все сериалы на PB.wtf

RePack

FAR CRY 5

Anonymous, доброй ночи, мы катастрофически не успеваем собрать деньги на оплату серверов, помогите нам пожалуйста 5,10,15р., для нас важна любая помощь . В качестве благодарности мы отключим Вам всю рекламу на сайте (укажите свой ник в строку Ваше имя)!

×
  
Magnet ссылка

Пиковая дама (Роман Тихомиров) [1960, СССР, музыкальный фильм, экранизация, DVDRip от AVP Studio] pb.wtf

Пиковая дама через торрент pb.wtf

Размер: 1.46 GB | Добавлен: 3 года 8 мес. назад | Торрент скачан:10 раз
Смотреть онлайн Пиковая дама | Скачать    Ребята, помогите собрать деньги на оплату серверов!!!

19-03-2018 07:52 Пиковая дама Скачать торрент  

Пиковая дама
Страна: СССР
Производство: Ленфильм

Жанр: музыкальный фильм, экранизация
Год выпуска: 1960
Продолжительность: 01:41:18

Перевод: Не требуется
Cубтитры: нет
Оригинальная аудиодорожка: русский

Режиссер: Роман Тихомиров

В ролях:
Олег Стриженов, Ольга Красина, Елена Полевицкая, Валентин Кулик, Вадим Медведев, Ирина Губанова, Александр Густавсон, Иван Дарьялов, Владимир Косарев, Андрей Олеванов, Дмитрий Радлов, Юрий Соловов...
Об актёрах подробней

Описание:
По одноименной повести А.С.Пушкина и опере П.И.Чайковского.
Премьера оперы "Пиковая дама" состоялась в Мариинском театре 7 (19) декабря 1890 года и имела огромный успех. При этом опера была создана Чайковским за предельно короткий срок - в сорок четыре дня. И, по словам композитора, писалась "с самозабвением и наслаждением".

Источник: DVD9 R5
Качество видео: DVDRip
Формат видео: AVI

Видео: 704x496 (1,419:1), 25,000 кадров/сек, XviD ~ 1604 kbps avg, 0.184 bit/pixel
Аудио: 48 kHz, Dolby Digital AC3 5.1, 448 kbps

Раздача от:
Общее
Полное имя : Pikovaya.dama.1960.DVDRip_[New-team]_by_AVP_Studio.avi
Формат : AVI
Формат/Информация : Audio Video Interleave
Размер файла : 1,46 Гбайт
Продолжительность : 1 ч. 41 м.
Общий поток : 2062 Кбит/сек
Программа кодирования : VirtualDubMod 1.5.10.3 | www.virtualdub-fr.org || (build 2550/release)
Библиотека кодирования : VirtualDubMod build 2550/release

Видео
Идентификатор : 0
Формат : MPEG-4 Visual
Профиль формата : Advanced Simple@L5
Настройки формата : BVOP1 / Custom Matrix
Параметр BVOP формата : 1
Параметр QPel формата : Нет
Параметр GMC формата : Без точки перехода
Параметр матрицы формата : Выборочная
Идентификатор кодека : XVID
Идентификатор кодека/Подсказка : XviD
Продолжительность : 1 ч. 41 м.
Битрейт : 1604 Кбит/сек
Ширина : 704 пикселя
Высота : 496 пикселей
Соотношение сторон : 1,419
Частота кадров : 25,000 кадров/сек
Цветовое пространство : YUV
Субдискретизация насыщенности : 4:2:0
Битовая глубина : 8 бит
Тип развёртки : Прогрессивная
Метод сжатия : С потерями
Бит/(Пиксели*Кадры) : 0.184
Размер потока : 1,13 Гбайт (78%)
Библиотека кодирования : XviD 73

Аудио
Идентификатор : 1
Формат : AC-3
Формат/Информация : Audio Coding 3
Идентификатор кодека : 2000
Продолжительность : 1 ч. 41 м.
Вид битрейта : Постоянный
Битрейт : 448 Кбит/сек
Каналы : 6 каналов
Расположение каналов : Front: L C R, Side: L R, LFE
Частота : 48,0 КГц
Частота кадров : 31,250 кадров/сек (1536 SPF)
Битовая глубина : 16 бит
Метод сжатия : С потерями
Размер потока : 325 Мбайт (22%)
Выравнивание : Разделение по промежуткам
Продолжительность промежутка : 40 мс. (1,00 видеокадр)
Время предзагрузки промежутка : 500 мс
pb.wtf



Скачать Пиковая дама через торрент http://a.radikal.ru/a16/1912/13/be56797d9ab7.png Скачать, смотреть онлайн Пиковая дама бесплантно в хорошем качестве Описание:По одноименной повести А.С.Пушкина и опере П.И.Чайковского.Премьера оперы "Пиковая дама" состоялась в Мариинском театре 7 (19) ... 5 10 1
Info! Золотая раздача, скачанное не засчитывается.
Торрент: Зарегистрирован [2018-03-19 07:52] · скачан: 10 раз
Статус: √ проверено
Размер: 1.46 GB
Как cкачать? Как скачать Пиковая дама через торрент | UTorrent

% Раздел Тема Автор DL S | L
Фильмы 2021 [DVDrip, WEB-DLRip, HDrip] (DUB, MVO) [ 745 MB ] Проклятие пиковой дамы / Queen of Spades [2021 WEB-DLRip] MVO bober100 Скачать
1 | 0
Фильмы 2021 [DVDrip, WEB-DLRip, HDrip] (DUB, MVO) [ 1.46 GB ] Проклятие пиковой дамы / Queen of Spades [2021 WEB-DLRip] MVO bober100 Скачать
1 | 0
Фильмы (WEB-DL 720p, 1080p) [ 4.81 GB ] Проклятие пиковой дамы / Queen of Spades [2021 WEB-DL 1080p] MVO bober100 Скачать
3 | 0
Фантастика [ 897 MB ] Алекс Орлов - Каспар Фрай 5. Тайный друг ее величества[Пиковая дама 2020 128 kbps MP3] urapavel Скачать
1 | 0
Фантастика [ 877 MB ] Алекс Орлов - Каспар Фрай 4. Тайна Синих лесов [Пиковая дама 2020 128 kbps MP3] urapavel Скачать
1 | 0
Фантастика [ 1021 MB ] Алекс Орлов - Каспар Фрай 3. Сезон королевской охоты [Пиковая дама 2020 192 kbps MP3] urapavel Скачать
2 | 0
Фантастика [ 893 MB ] Алекс Орлов - Каспар Фрай 2. Крылья огненных драконов [Пиковая дама 2020 128 kbps MP3] urapavel Скачать
2 | 0

28-11-2019 20:33  

Отключить всю рекламу на сайте

    Дорогой пользователь! Огромная просьба, поблагодарите релизера, оцените раздачу и оставьте свои комментарий, если Вы скачали Пиковая дама через торрент бесплатно!
    Комментировать посты могут только пользователи прошедшие не сложную регистрацию
    Показать сообщения:    

    Пиковая дама через торрент
    Скачать бесплатно Пиковая дама
    Пиковая дама скачать торрент
    Пиковая дама смотреть онлайн
    Cкачать фильм Пиковая дама бесплатно
    Пиковая дама скачать торрент в хорошем качестве
    Пиковая дама смотреть онлайн бесплатно в хорошем качестве


    Вы не можете начинать темы
    Вы не можете отвечать на сообщения
    Вы не можете редактировать свои сообщения
    Вы не можете удалять свои сообщения
    Вы не можете голосовать в опросах
    Вы не можете прикреплять файлы к сообщениям
    Вы можете скачивать файлы