Ссылка на приватное зеркало всего за 1$. Внимание количество ограничено!!!

OK

1+1

iTunes

мы

OK

1

WEB-DLRip

Джокер

Пифагор

Ведьмак / The Witcher сериал

iTunes

ПШазам

ОК

Оно 2

iTunes

30
pack

Вам бонус

ВАЖНО

!!Акция!!

Alien_RageХит недели

RePack

Resident Evil 21

ИГРА 18+

pack

RePack

jed

RePack

fifa19

RePack

Assassins Creed: Odyssey

RePack

NEED FOR SPEED™ PAYBACK

4 сезон

9 сезон

Бесстыжие 9 сезон

Все сериалы

все сериалы на PB.wtf

RePack

FAR CRY 5
  

Невинность в сети / Amateur Teens (Никлаус Хилбер) [2015, драма, WEB-DL 720p] MVO ["Синема УС"] pb.wtf

Невинность в сети через торрент pb.wtf

Размер: 3.25 GB | Добавлен: 1 год 10 мес. назад | Торрент скачан:41 раз
Скачать  

19-03-2018 10:05 Невинность в сети Скачать торрент  

Невинность в сети / Amateur TeensГод выпуска: 2015
Страна: Швейцария
Жанр: драма
Продолжительность: 01:34:28
Перевод: Любительский (многоголосый) | "Синема УС"
Субтитры: отсутствуют

Режиссер: Никлаус Хилбер

rating

В ролях:

Николя Хейни, Зоэ Пастель Холтюйзен, Фабрицио Борсани, Аннина Уолт, Кристиан Вебер, Чиара Карла Бэр, Бит Марти, Луна Ускер, Ветон Хамза, Жером Хамм

Описание:

Современная трагедия о группе 14-летних европейских школьников, чья повседневная жизнь формируются посредством влияния социальных медиа и возрастающей сексуализации в сети Интернет.

Качество: WEB-DL 720p
Формат: MKV
Видео кодек: H.264
Аудио кодек: AC3

Видео: 4533 Kb/s, 1280x536
Аудио#1: Русский, (AC3, 2 ch, 384 Кбит/с)
скриншот  скриншот  скриншот  

Общее
Уникальный идентификатор : 208970253909782909552137028512044370256 (0x9D3634FA9DD7F41BB03F7537EC414950)
Полное имя : D:\Amateur.Teens.2017.P.WEB-DL.72Op_KOSHARA.mkv
Формат : Matroska
Версия формата : Version 2
Размер файла : 3,25 Гбайт
Продолжительность : 1 ч. 34 м.
Режим общего битрейта : Переменный
Общий поток : 4919 Кбит/сек
Дата кодирования : UTC 2018-03-18 19:21:45
Программа кодирования : mkvmerge v8.3.0 ('Over the Horizon') 64bit
Библиотека кодирования : libebml v1.3.1 + libmatroska v1.4.2

Видео
Идентификатор : 1
Формат : AVC
Формат/Информация : Advanced Video Codec
Профиль формата : High@L4.1
Параметр CABAC формата : Да
Параметр RefFrames формата : 4 кадра
Идентификатор кодека : V_MPEG4/ISO/AVC
Продолжительность : 1 ч. 34 м.
Вид битрейта : Переменный
Битрейт : 4533 Кбит/сек
Максимальный битрейт : 5000 Кбит/сек
Ширина : 1280 пикселей
Высота : 536 пикселей
Соотношение сторон : 2,40:1
Режим частоты кадров : Постоянный
Частота кадров : 23,976 (24000/1001) кадра/сек
Стандарт вещания : Component
Цветовое пространство : YUV
Субдискретизация насыщенности : 4:2:0
Битовая глубина : 8 бит
Тип развёртки : Прогрессивная
Бит/(Пиксели*Кадры) : 0.270
Размер потока : 2,93 Гбайт (90%)
Default : Да
Forced : Нет
Цветовой диапазон : Limited
Основные цвета : BT.709
Характеристики трансфера : BT.709
Коэффициенты матрицы : BT.709

Аудио
Идентификатор : 2
Формат : AC-3
Формат/Информация : Audio Coding 3
Расширение режима : CM (complete main)
Параметр Endianness формата : Big
Идентификатор кодека : A_AC3
Продолжительность : 1 ч. 34 м.
Вид битрейта : Постоянный
Битрейт : 384 Кбит/сек
Каналы : 2 канала
Расположение каналов : Front: L R
Частота : 48,0 КГц
Частота кадров : 31,250 кадров/сек (1536 spf)
Метод сжатия : С потерями
Размер потока : 259 Мбайт (8%)
Default : Да
Forced : Нет

pb.wtf



Скачать Невинность в сети через торрент http://img12.lostpic.net/2018/03/19/75fe7eec21785c339c138d987f1456bc.jpg Скачать фильм Невинность в сети через торрент бесплантно в хорошем качестве Описание: Современная трагедия о группе 14-летних европейских школьников, чья повседневная жизнь формируются посредством влияния социальных ... 9.8 10 5
Торрент: Зарегистрирован [2018-03-19 10:05] · скачан: 41 раз
Статус: T временная
Размер: 3.25 GB
Как cкачать? Как скачать Невинность в сети через торрент | qTorrent

% Раздел Тема Автор DL S | L
T Фильмы (мультфильмы) cо спонсором показа (Новинки AVI/MKV) [ 1.37 GB ] Невинность в сети / Amateur Teens [2015 WEB-DLRip] MVO ["Синема УС"] bober100 Скачать
2 | 0

28-11-2019 20:33  

Отключить всю рекламу на сайте

    Дорогой пользователь! Огромная просьба, поблагодарите релизера, оцените раздачу и оставьте свои комментарий, если Вы скачали Невинность в сети через торрент бесплатно! Внесите свою лепту в развитие PiratBit!
    Комментировать посты могут только пользователи прошедшие не сложную регистрацию
    Показать сообщения:    

    Невинность в сети через торрент
    Скачать бесплатно Невинность в сети
    Невинность в сети скачать торрент
    Невинность в сети смотреть онлайн
    Cкачать фильм Невинность в сети бесплатно
    Невинность в сети скачать торрент в хорошем качестве
    Невинность в сети смотреть онлайн бесплатно в хорошем качестве


    Вы не можете начинать темы
    Вы не можете отвечать на сообщения
    Вы не можете редактировать свои сообщения
    Вы не можете удалять свои сообщения
    Вы не можете голосовать в опросах
    Вы не можете прикреплять файлы к сообщениям
    Вы можете скачивать файлы