Ссылка на приватное зеркало всего за 1$. Внимание количество ограничено!!!

OK

1+1

iTunes

мы

OK

1

WEB-DLRip

Джокер

Пифагор

Ведьмак / The Witcher сериал

Лицензия

ПШазам

ОК

Оно 2

iTunes

30
pack

Вам бонус

ВАЖНО

!!Акция!!

Alien_RageХит недели

RePack

Resident Evil 21

ИГРА 18+

pack

RePack

jed

RePack

fifa19

RePack

Assassins Creed: Odyssey

RePack

NEED FOR SPEED™ PAYBACK

4 сезон

9 сезон

Бесстыжие 9 сезон

Все сериалы

все сериалы на PB.wtf

RePack

FAR CRY 5
  

Клакер / The Clapper (Дито Монтиель) [2017, комедия, BDRip 720p] MVO ["Синема УС"] pb.wtf

Клакер через торрент pb.wtf

Размер: 4.08 GB | Добавлен: 1 год 10 мес. назад | Торрент скачан:43 раза
Скачать  

19-03-2018 14:03 Клакер Скачать торрент  

Клакер / The ClapperГод выпуска: 2017
Страна: США
Жанр: комедия
Продолжительность: 01:32:12
Перевод: Любительский (многоголосый) | "Синема УС"
Субтитры: отсутствуют

Режиссер: Дито Монтиель

rating

В ролях:

Аманда Сайфред, Эд Хелмс, Леа Ремини, Джеймс Рэнсон, Алан Тик, Адам Левин, Расселл Питерс, Чарльз Халфорд, Бренда Ваккаро, Трэйси Морган

Описание:

Пятнадцати минутная слава полностью разрушает жизнь человека, который работал клапёром на телевидении. Захватывая попутно в водоворот событий жизни его девушки и лучшего друга.

Качество: BDRip 720p
Формат: MKV

Видео: 5885 Kбит/с, 1280x536
Аудио#1: Русский, (AC3, 2 ch, 448 Кбит/с)
скриншот  скриншот  скриншот  

Общее
Уникальный идентификатор : 195279068201830470925720915425858906125 (0x92E9616832D698F5B6CF12BE537F680D)
Полное имя : D:\The.Clapper.2017.P.BDRip.72Op_KOSHARA.mkv
Формат : Matroska
Версия формата : Version 2
Размер файла : 4,08 Гбайт
Продолжительность : 1 ч. 32 м.
Режим общего битрейта : Переменный
Общий поток : 6335 Кбит/сек
Дата кодирования : UTC 2018-03-16 04:55:06
Программа кодирования : mkvmerge v8.3.0 ('Over the Horizon') 64bit
Библиотека кодирования : libebml v1.3.1 + libmatroska v1.4.2

Видео
Идентификатор : 1
Формат : AVC
Формат/Информация : Advanced Video Codec
Профиль формата : High@L4.1
Параметр CABAC формата : Да
Параметр RefFrames формата : 4 кадра
Идентификатор кодека : V_MPEG4/ISO/AVC
Продолжительность : 1 ч. 32 м.
Вид битрейта : Переменный
Битрейт : 5885 Кбит/сек
Максимальный битрейт : 6700 Кбит/сек
Ширина : 1280 пикселей
Высота : 536 пикселей
Соотношение сторон : 2,40:1
Режим частоты кадров : Постоянный
Частота кадров : 23,976 (24000/1001) кадра/сек
Стандарт вещания : Component
Цветовое пространство : YUV
Субдискретизация насыщенности : 4:2:0
Битовая глубина : 8 бит
Тип развёртки : Прогрессивная
Бит/(Пиксели*Кадры) : 0.350
Размер потока : 3,71 Гбайт (91%)
Default : Да
Forced : Нет
Цветовой диапазон : Limited
Основные цвета : BT.709
Характеристики трансфера : BT.709
Коэффициенты матрицы : BT.709

Аудио
Идентификатор : 2
Формат : AC-3
Формат/Информация : Audio Coding 3
Расширение режима : CM (complete main)
Параметр Endianness формата : Big
Идентификатор кодека : A_AC3
Продолжительность : 1 ч. 32 м.
Вид битрейта : Постоянный
Битрейт : 448 Кбит/сек
Каналы : 2 канала
Расположение каналов : Front: L R
Частота : 48,0 КГц
Частота кадров : 31,250 кадров/сек (1536 spf)
Метод сжатия : С потерями
Размер потока : 295 Мбайт (7%)
Default : Да
Forced : Нет

pb.wtf



Скачать Клакер через торрент http://img12.lostpic.net/2018/03/19/83429792543ae7ad6e12ab89147b4e1b.jpg Скачать фильм Клакер через торрент бесплантно в хорошем качестве Описание: Пятнадцати минутная слава полностью разрушает жизнь человека, который работал клапёром на телевидении. Захватывая попутно в ... 10 10 3
Торрент: Зарегистрирован [2018-03-19 14:03] · скачан: 43 раз
Статус: # сомнительно
Размер: 4.08 GB
Как cкачать? Как скачать Клакер через торрент | qTorrent

% Раздел Тема Автор DL S | L
T Фильмы (мультфильмы) cо спонсором показа (Новинки AVI/MKV) [ 1.37 GB ] Клакер / The Clapper [2017 HDRip] MVO ["Синема УС"] bober100 Скачать
1 | 0

28-11-2019 20:33  

Отключить всю рекламу на сайте

    Дорогой пользователь! Огромная просьба, поблагодарите релизера, оцените раздачу и оставьте свои комментарий, если Вы скачали Клакер через торрент бесплатно! Внесите свою лепту в развитие PiratBit!
    Комментировать посты могут только пользователи прошедшие не сложную регистрацию
    Показать сообщения:    

    Клакер через торрент
    Скачать бесплатно Клакер
    Клакер скачать торрент
    Клакер смотреть онлайн
    Cкачать фильм Клакер бесплатно
    Клакер скачать торрент в хорошем качестве
    Клакер смотреть онлайн бесплатно в хорошем качестве


    Вы не можете начинать темы
    Вы не можете отвечать на сообщения
    Вы не можете редактировать свои сообщения
    Вы не можете удалять свои сообщения
    Вы не можете голосовать в опросах
    Вы не можете прикреплять файлы к сообщениям
    Вы можете скачивать файлы