Ссылка на приватное зеркало нашего сайта всего за 1$. Внимание количество ограничено!!!

2 сезон

iTunes

1 сезон

1

2 сезон

2 сезон

iTunes

1 сезон

RePack

30

Ultimate

ВАЖНО

ИГРА 18+

pack

RePack

MK11
pack

Забери бонус

RePack

jed

!!Акция!!

Alien_Rage

RePack

fifa19

RePack

Assassins Creed: Odyssey

RePack

NEED FOR SPEED™ PAYBACK

4 сезон

9 сезон

Бесстыжие 9 сезон

Все сериалы

все сериалы на PB.wtf

RePack

FAR CRY 5
  

Убить Гюнтера / Killing Gunther (Таран Киллэм) [2017, Боевик, комедия, BD Remux 1080р] 2xMVO [MUZOBOZ], [Лицензия / iTunes] pb.wtf

Убить Гюнтера через торрент pb.wtf

Размер: 16.89 GB | Добавлен: 2 года 8 мес. назад | Торрент скачан:46 раз
Скачать  

19-03-2018 17:57 Убить Гюнтера Скачать торрент  

Убить Гюнтера / Killing GuntherГод выпуска: 2017
Страна: США
Жанр: Боевик, комедия
Продолжительность: AC3, 6 ch, 384 kbps
Перевод:

1. Профессиональный (многоголосый) | Лицензия / iTunes
2. Любительский (многоголосый) | MUZOBOZ

Субтитры: Английские

Режиссер: Таран Киллэм

rating

В ролях:


Таран Киллэм, Ханна Саймон (Sanaa), Бобби Мойнахан (Donnie), Пол Бриттейн (Gabe), Арнольд Шварценеггер, Питер Келамис (Rahmat), Аарон Ю (Yong), Коби Смолдерс (Lisa McCalla), Эллисон Толман (Mia), Стив Бачич (Max), Скотт МакНил (Cheyenne), Амир Талай (Izzat)
Описание:

В мире профессиональных убийц существует свой рейтинг, и на его вершине находится некто Гюнтер. Никто не знает, как он выглядит, и где его найти, но совершенно точно известно, что с ним лучше не связываться. Киллер Блейк решает поправить иерархию и любой ценой уничтожить легендарного Гюнтера, для чего собирает команду наёмников со всего света — хакера, взрывника, дочь террориста, безбашенных близнецов из России, китайского специалиста по ядам и даже убийцу с бионической рукой.

Качество: BD Remux 1080р
Формат: MKV

Видео: MPEG-4 AVC / 21491 kbps / 1920x1080 / 23.976 fps
Аудио#1: Russian / Dolby Digital Audio / 5.1 / 48 kHz / 384 kbps - Многоголосый (iTunes)
Аудио#2: Russian / Dolby Digital Audio / 5.1 / 48 kHz / 448 kbps - Многоголосый (MUZOBOZ)
Аудио#3: English / DTS-HD Master Audio / 5.1 / 48 kHz / 3657 kbps - Оригинал (Английский)
скриншот   скриншот   скриншот   скриншот  

Format : Matroska
Format version : Version 2
File size : 16.9 GiB
Duration : 1 h 33 min
Overall bit rate mode : Variable
Overall bit rate : 25.9 Mb/s
Movie name : Killing Gunther (2017) BDRemux 1080р
Encoded date : UTC 2018-03-19 07:23:48
Writing application : mkvmerge v4.9.1 ('Ich will') сборка от Jul 11 2011 23:53:15
Writing library : libebml v1.2.1 + libmatroska v1.1.1

Video
ID : 1
Format : AVC
Format/Info : Advanced Video Codec
Format profile : High@L4.1
Format settings, CABAC : Yes
Format settings, RefFrames : 4 frames
Codec ID : V_MPEG4/ISO/AVC
Duration : 1 h 33 min
Bit rate mode : Variable
Maximum bit rate : 35.0 Mb/s
Width : 1 920 pixels
Height : 1 080 pixels
Display aspect ratio : 16:9
Frame rate mode : Constant
Frame rate : 23.976 (24000/1001) FPS
Color space : YUV
Chroma subsampling : 4:2:0
Bit depth : 8 bits
Scan type : Progressive
Title : Убить Гюнтера
Language : English
Default : Yes
Forced : No

Audio #1
ID : 2
Format : AC-3
Format/Info : Audio Coding 3
Format settings, Endianness : Big
Codec ID : A_AC3
Duration : 1 h 33 min
Bit rate mode : Constant
Bit rate : 384 kb/s
Channel(s) : 6 channels
Channel positions : Front: L C R, Side: L R, LFE
Sampling rate : 48.0 kHz
Frame rate : 31.250 FPS (1536 SPF)
Bit depth : 16 bits
Compression mode : Lossy
Stream size : 257 MiB (1%)
Title : Профессиональный многоголосый | iTunes
Language : Russian
Service kind : Complete Main
Default : Yes
Forced : No

Audio #2
ID : 3
Format : AC-3
Format/Info : Audio Coding 3
Format settings, Endianness : Big
Codec ID : A_AC3
Duration : 1 h 33 min
Bit rate mode : Constant
Bit rate : 448 kb/s
Channel(s) : 6 channels
Channel positions : Front: L C R, Side: L R, LFE
Sampling rate : 48.0 kHz
Frame rate : 31.250 FPS (1536 SPF)
Bit depth : 16 bits
Compression mode : Lossy
Stream size : 299 MiB (2%)
Title : Любительский многоголосый | MUZOBOZ
Language : Russian
Service kind : Complete Main
Default : No
Forced : No

Audio #3
ID : 4
Format : DTS
Format/Info : Digital Theater Systems
Format profile : MA / Core
Mode : 16
Format settings, Endianness : Big
Codec ID : A_DTS
Duration : 1 h 33 min
Bit rate mode : Variable / Constant
Bit rate : Unknown / 1 509 kb/s
Channel(s) : 6 channels
Channel positions : Front: L C R, Side: L R, LFE
Sampling rate : 48.0 kHz
Frame rate : 93.750 FPS (512 SPF)
Bit depth : 24 bits
Compression mode : Lossless / Lossy
Title : Original
Language : English
Default : No
Forced : No

Text
ID : 5
Format : UTF-8
Codec ID : S_TEXT/UTF8
Codec ID/Info : UTF-8 Plain Text
Language : English
Default : No
Forced : No

pb.wtf



Скачать Убить Гюнтера через торрент http://i103.fastpic.ru/big/2018/0319/44/417e3d5e81d2399f4b858601dccece44.jpg Скачать фильм Убить Гюнтера через торрент бесплантно в хорошем качестве Описание: В мире профессиональных убийц существует свой рейтинг, и на его вершине находится некто Гюнтер. Никто не знает, как он выглядит, ... 7.8 10 4
Торрент: Зарегистрирован [2018-03-19 17:57] · скачан: 46 раз
Статус: √ проверено
Размер: 16.89 GB
Как cкачать? Как скачать Убить Гюнтера через торрент | qTorrent

% Раздел Тема Автор DL S | L
Фильмы [HD 720p, 1080p] (Хороший звук DUB, MVO) [ 5.61 GB ] Убить Гюнтера / Killing Gunther [2017 BDRip-HEVC 1080p ] MVO bober100 Скачать
1 | 0
Фильмы 2017 [DVDrip, WEB-DLRip, HDrip] (DUB, MVO) [ 1.46 GB ] Убить Гюнтера / Killing Gunther [2017 BDRip] [MVO] killermax2013 Скачать
2 | 0
T Релизы по Парсеру [Игры, Сериалы и Фильмы и другое...] [ 4.75 GB ] Убить Гюнтера / Killing Gunther [2017 BDRip 720p] MVO schultz Скачать
1 | 0
Фильмы 2017 [DVDrip, WEB-DLRip, HDrip] (DUB, MVO) [ 2.22 GB ] Убить Гюнтера / Killing Gunther [2017 BDRip-AVC] MVO bober100 Скачать
2 | 0
Фильмы 2017 [DVDrip, WEB-DLRip, HDrip] (DUB, MVO) [ 1.42 GB ] Убить Гюнтера / Killing Gunther [2017 BDRip] MVO Twi7ter Скачать
1 | 0
Фильмы [HD 720p, 1080p] (Хороший звук DUB, MVO) [ 9.07 GB ] Убить Гюнтера / Killing Gunther [2017 BDRip 1080p] MVO bober100 Скачать
2 | 0
Фильмы [HD 720p, 1080p] (Хороший звук DUB, MVO) [ 5.17 GB ] Убить Гюнтера / Killing Gunther [2017 BDRip 720p] MVO bober100 Скачать
1 | 0

28-11-2019 20:33  

Отключить всю рекламу на сайте

23-04-2018 21:29 Убить Гюнтера Скачать торрент  

Гуано. Пол фильма еле вытерпел.pb.wtf



    Дорогой пользователь! Огромная просьба, поблагодарите релизера, оцените раздачу и оставьте свои комментарий, если Вы скачали Убить Гюнтера через торрент бесплатно! Внесите свою лепту в развитие PiratBit!
    Комментировать посты могут только пользователи прошедшие не сложную регистрацию
    Показать сообщения:    

    Убить Гюнтера через торрент
    Скачать бесплатно Убить Гюнтера
    Убить Гюнтера скачать торрент
    Убить Гюнтера смотреть онлайн
    Cкачать фильм Убить Гюнтера бесплатно
    Убить Гюнтера скачать торрент в хорошем качестве
    Убить Гюнтера смотреть онлайн бесплатно в хорошем качестве


    Вы не можете начинать темы
    Вы не можете отвечать на сообщения
    Вы не можете редактировать свои сообщения
    Вы не можете удалять свои сообщения
    Вы не можете голосовать в опросах
    Вы не можете прикреплять файлы к сообщениям
    Вы можете скачивать файлы