Ссылка на приватное зеркало нашего сайта всего за 1$. Внимание количество ограничено!!!

2 сезон

iTunes

1 сезон

1

2 сезон

2 сезон

iTunes

1 сезон

RePack

30

Новинка

ВАЖНО

ИГРА 18+

pack

RePack

MK11
pack

Забери бонус

RePack

jed

!!Акция!!

Alien_Rage

RePack

fifa19

RePack

Assassins Creed: Odyssey

RePack

NEED FOR SPEED™ PAYBACK

4 сезон

9 сезон

Бесстыжие 9 сезон

Все сериалы

все сериалы на PB.wtf

RePack

FAR CRY 5
  

Чи / The Chi / Сезон: 1 / Серии: 1-10 из 10 (Дэйв Родригез, Таня Хэмилтон, Рик Фамуйива) [2018, драма, WEBRip 1080p] MVO [BaibaKo] pb.wtf

Чи через торрент pb.wtf

Размер: 36.38 GB | Добавлен: 2 года 8 мес. назад | Торрент скачан:5 раз
Скачать  

19-03-2018 18:09 Чи Скачать торрент  

Чи / The Chi
Информация о фильме:

✦ Название: Чи
✦ Оригинальное название: The Chi
✦ Год выпуска: 2018 (1 сезон)
✦ Страна: США / Fox 21 Television Studios, Freedom Road Productions
✦ Жанр: драма
✦ Продолжительность: ~ 00:58:00
✦ Перевод: Профессиональный многоголосый | скриншот  
✦ Субтитры: отсутствуют
✦ Примечание: Присутствует реклама!

✦ Режиссер: Дэйв Родригез, Таня Хэмилтон, Рик Фамуйива

rating

В ролях:

Алена Леуан, Тосин Морохунфола, Дэвид Алан Андерсон, Хосе Антонио Гарсия, Армандо Риско, Джейсон Митчелл, Freddy Moyano, Julian Williams, Оливия Бёрд, Chronicle Ganawah

Описание:

События драмы происходят в Чикаго. Герои сериала «Чи» — жители бедных южных районов города, со сложной криминогенной обстановкой. Афроамериканцы, живущие здесь, вынуждены каждый день рисковать жизнью и искать возможность заработать денег. Подростки, живущие в Чикаго, быстро взрослеют. Таков и Алекс Хибберт: мальчику пришлось рано распрощаться с детскими мечтами и приложить серьезные усилия, чтобы чего-то добиться в жизни...

Информация о файле:

✦ Качество: WEBRip 1080p
✦ Формат: MKV

✦ Видео: MPEG-4 AVC, ~ 11.6 Мбит/с, 1920x1080
✦ Аудио#1: Русский (AC3, 6 ch, 640 Кбит/с)
✦ Аудио#2: английский (AC3, 6 ch, 640 Кбит/с)
скриншот   скриншот   скриншот  

Общее
Уникальный идентификатор : 214881985661838994531067149203766475891 (0xA1A8C3DB9922E3B299F4DF01411F7C73)
Полное имя : D:\The.Chi.s01.HD1080p.WEBRip.Rus.Eng.BaibaKo.tv\The.Chi.s01e01.HD1080p.WEBRip.Rus.Eng.BaibaKo.tv.mkv
Формат : Matroska
Версия формата : Version 4 / Version 2
Размер файла : 5,26 Гбайт
Продолжительность : 58 м. 16 с.
Общий поток : 12,9 Мбит/сек
Дата кодирования : UTC 2018-01-14 23:32:05
Программа кодирования : mkvmerge v9.3.1 ('Mask Machine') 64bit
Библиотека кодирования : libebml v1.3.4 + libmatroska v1.4.5

Видео
Идентификатор : 1
Формат : AVC
Формат/Информация : Advanced Video Codec
Профиль формата : High@L4
Параметр CABAC формата : Да
Параметр RefFrames формата : 4 кадра
Идентификатор кодека : V_MPEG4/ISO/AVC
Продолжительность : 58 м. 16 с.
Битрейт : 11,4 Мбит/сек
Ширина : 1920 пикселей
Высота : 1080 пикселей
Соотношение сторон : 16:9
Режим частоты кадров : Постоянный
Частота кадров : 23,976 (24000/1001) кадра/сек
Цветовое пространство : YUV
Субдискретизация насыщенности : 4:2:0
Битовая глубина : 8 бит
Тип развёртки : Прогрессивная
Бит/(Пиксели*Кадры) : 0.229
Размер потока : 4,63 Гбайт (88%)
Библиотека кодирования : x264 core 152 r2851 ba24899
Настройки программы : cabac=1 / ref=3 / deblock=1:0:0 / analyse=0x3:0x113 / me=hex / subme=7 / psy=1 / psy_rd=1.00:0.00 / mixed_ref=1 / me_range=16 / chroma_me=1 / trellis=1 / 8x8dct=1 / cqm=0 / deadzone=21,11 / fast_pskip=1 / chroma_qp_offset=-2 / threads=30 / lookahead_threads=5 / sliced_threads=0 / nr=0 / decimate=1 / interlaced=0 / bluray_compat=0 / constrained_intra=0 / bframes=3 / b_pyramid=2 / b_adapt=1 / b_bias=0 / direct=1 / weightb=1 / open_gop=0 / weightp=2 / keyint=240 / keyint_min=23 / scenecut=40 / intra_refresh=0 / rc_lookahead=40 / rc=crf / mbtree=1 / crf=18.0 / qcomp=0.60 / qpmin=0 / qpmax=69 / qpstep=4 / ip_ratio=1.40 / aq=1:1.00
Default : Нет
Forced : Нет

Аудио #1
Идентификатор : 2
Формат : AC-3
Формат/Информация : Audio Coding 3
Расширение режима : CM (complete main)
Параметр Endianness формата : Big
Идентификатор кодека : A_AC3
Продолжительность : 58 м. 16 с.
Вид битрейта : Постоянный
Битрейт : 640 Кбит/сек
Каналы : 6 каналов
Расположение каналов : Front: L C R, Side: L R, LFE
Частота : 48,0 КГц
Частота кадров : 31,250 кадров/сек (1536 spf)
Метод сжатия : С потерями
Размер потока : 267 Мбайт (5%)
Язык : Russian
Default : Да
Forced : Нет

Аудио #2
Идентификатор : 3
Формат : AC-3
Формат/Информация : Audio Coding 3
Расширение режима : CM (complete main)
Параметр Endianness формата : Big
Идентификатор кодека : A_AC3
Продолжительность : 58 м. 16 с.
Вид битрейта : Постоянный
Битрейт : 640 Кбит/сек
Каналы : 6 каналов
Расположение каналов : Front: L C R, Side: L R, LFE
Частота : 48,0 КГц
Частота кадров : 31,250 кадров/сек (1536 spf)
Метод сжатия : С потерями
Размер потока : 267 Мбайт (5%)
Язык : English
Default : Нет
Forced : Нет

pb.wtf



Скачать Чи через торрент http://i100.fastpic.ru/big/2018/0319/c0/acb9a19f040ec8e89469ed29154e41c0.jpg Скачать фильм Чи через торрент бесплантно в хорошем качестве Описание: События драмы происходят в Чикаго. Герои сериала «Чи» — жители бедных южных районов города, со сложной криминогенной обстановкой. ... 7 10 3
Info! Золотая раздача, скачанное не засчитывается.
Торрент: Зарегистрирован [2018-03-19 18:09] · скачан: 5 раз
Статус: √ проверено
Размер: 36.38 GB
Как cкачать? Как скачать Чи через торрент | qTorrent

% Раздел Тема Автор DL S | L
Зарубежные сериалы [ 7.84 GB ] Чи / The Chi / Сезон: 3 / Серии: 1-10 из 10 [2020 WEB-DLRip] MVO [FOX] bober100 Скачать
1 | 0
Зарубежные сериалы [ 34.19 GB ] Чи / The Chi / Сезон: 3 / Серии: 1-10 из 10 [2020 WEB-DL 1080p] [MVO] killermax2013 Скачать
1 | 0
Зарубежные сериалы [ 27.75 GB ] Чи / The Chi / Сезон: 3 / Серии: 1-10 из 10 [2020 WEBRip 1080p] [MVO] killermax2013 Скачать
1 | 0
Зарубежные сериалы [ 67.29 GB ] Чи / The Chi / Сезон: 2 / Серии: 1-10 из 10 [2019 WEBRip 1080p] [MVO] killermax2013 Скачать
1 | 0
Зарубежные сериалы [ 33.28 GB ] Чи / The Chi / Сезон: 1 / Серии: 1-10 из 10 [2018 WEBRip 1080p] [MVO] killermax2013 Скачать
1 | 0
Зарубежные сериалы [ 6.86 GB ] Чи / The Chi / Сезон: 1 / Серии: 1-10 из 10 [2018 WEB-DLRip] [MVO] killermax2013 Скачать
1 | 0
Зарубежные сериалы [ 22.38 GB ] Чи / The Chi / Сезон: 2 / Серии: 1-10 из 10 [2019 WEBRip 720p] DVO [Octopus] bober100 Скачать
1 | 0

28-11-2019 20:33  

Отключить всю рекламу на сайте

    Дорогой пользователь! Огромная просьба, поблагодарите релизера, оцените раздачу и оставьте свои комментарий, если Вы скачали Чи через торрент бесплатно! Внесите свою лепту в развитие PiratBit!
    Комментировать посты могут только пользователи прошедшие не сложную регистрацию
    Показать сообщения:    

    Чи через торрент
    Скачать бесплатно Чи
    Чи скачать торрент
    Чи смотреть онлайн
    Cкачать фильм Чи бесплатно
    Чи скачать торрент в хорошем качестве
    Чи смотреть онлайн бесплатно в хорошем качестве


    Вы не можете начинать темы
    Вы не можете отвечать на сообщения
    Вы не можете редактировать свои сообщения
    Вы не можете удалять свои сообщения
    Вы не можете голосовать в опросах
    Вы не можете прикреплять файлы к сообщениям
    Вы можете скачивать файлы