Ссылка на приватное зеркало нашего сайта всего за 1$. Внимание количество ограничено!!!

2 сезон

iTunes

1 сезон

1

2 сезон

2 сезон

iTunes

1 сезон

RePack

30

Ultimate

ВАЖНО

ИГРА 18+

pack

RePack

MK11
pack

Забери бонус

RePack

jed

!!Акция!!

Alien_Rage

RePack

fifa19

RePack

Assassins Creed: Odyssey

RePack

NEED FOR SPEED™ PAYBACK

4 сезон

9 сезон

Бесстыжие 9 сезон

Все сериалы

все сериалы на PB.wtf

RePack

FAR CRY 5
  

Чи / The Chi / Сезон: 1 / Серии: 1-10 из 10 (Дэйв Родригез, Таня Хэмилтон, Рик Фамуйива) [2018, драма, WEBRip] MVO [BaibaKo] pb.wtf

Чи через торрент pb.wtf

Размер: 6.89 GB | Добавлен: 2 года 8 мес. назад | Торрент скачан:14 раз
Скачать  

19-03-2018 18:21 Чи Скачать торрент  

Чи / The Chi
Информация о фильме:

✦ Название: Чи
✦ Оригинальное название: The Chi
✦ Год выпуска: 2018 (1 сезон)
✦ Страна: США / Fox 21 Television Studios, Freedom Road Productions
✦ Жанр: драма
✦ Продолжительность: ~ 00:58:00
✦ Перевод: Профессиональный многоголосый | скриншот  
✦ Субтитры: отсутствуют
✦ Примечание: Присутствует реклама!

✦ Режиссер: Дэйв Родригез, Таня Хэмилтон, Рик Фамуйива

rating

В ролях:

Алена Леуан, Тосин Морохунфола, Дэвид Алан Андерсон, Хосе Антонио Гарсия, Армандо Риско, Джейсон Митчелл, Freddy Moyano, Julian Williams, Оливия Бёрд, Chronicle Ganawah

Описание:

События драмы происходят в Чикаго. Герои сериала «Чи» — жители бедных южных районов города, со сложной криминогенной обстановкой. Афроамериканцы, живущие здесь, вынуждены каждый день рисковать жизнью и искать возможность заработать денег. Подростки, живущие в Чикаго, быстро взрослеют. Таков и Алекс Хибберт: мальчику пришлось рано распрощаться с детскими мечтами и приложить серьезные усилия, чтобы чего-то добиться в жизни...

Информация о файле:

✦ Качество: WEBRip
✦ Формат: AVI

✦ Видео: XviD, ~ 1500 Кбит/с, 720x400
✦ Аудио#1: Русский (MP3, 2 ch, 192 Кбит/с)
✦ Аудио#2: английский (MP3, 2 ch, 192 Кбит/с)
скриншот   скриншот   скриншот  

Общее
Полное имя : D:\The.Chi.s01.WEBRip.XviD.Rus.Eng.BaibaKo.tv\The.Chi.s01e01.WEBRip.XviD.Rus.Eng.BaibaKo.tv.avi
Формат : AVI
Формат/Информация : Audio Video Interleave
Размер файла : 788 Мбайт
Продолжительность : 58 м. 16 с.
Общий поток : 1891 Кбит/сек

Видео
Идентификатор : 0
Формат : MPEG-4 Visual
Профиль формата : Advanced Simple@L5
Параметр BVOP формата : 1
Параметр QPel формата : Нет
Параметр GMC формата : Без точки перехода
Параметр матрицы формата : Default (H.263)
Идентификатор кодека : XVID
Идентификатор кодека/Подсказка : XviD
Продолжительность : 58 м. 16 с.
Битрейт : 1500 Кбит/сек
Ширина : 720 пикселей
Высота : 400 пикселей
Соотношение сторон : 16:9
Частота кадров : 23,976 (24000/1001) кадра/сек
Цветовое пространство : YUV
Субдискретизация насыщенности : 4:2:0
Битовая глубина : 8 бит
Тип развёртки : Прогрессивная
Метод сжатия : С потерями
Бит/(Пиксели*Кадры) : 0.217
Размер потока : 625 Мбайт (79%)
Библиотека кодирования : XviD 65

Аудио #1
Идентификатор : 1
Формат : MPEG Audio
Версия формата : Version 1
Профиль формата : Layer 3
Режим : Joint stereo
Расширение режима : MS Stereo
Идентификатор кодека : 55
Идентификатор кодека/Подсказка : MP3
Продолжительность : 58 м. 16 с.
Вид битрейта : Постоянный
Битрейт : 192 Кбит/сек
Каналы : 2 канала
Частота : 48,0 КГц
Метод сжатия : С потерями
Размер потока : 80,0 Мбайт (10%)
Выравнивание : Соединение по промежуткам
Продолжительность промежутка : 167 мс. (4,00 видеокадра)
Время предзагрузки промежутка : 216 мс.
Заголовок : The.Chi.S01E01 RUS
Библиотека кодирования : LAME3.99r
Настройки программы : -m j -V 4 -q 2 -lowpass 18.6 -b 192

Аудио #2
Идентификатор : 2
Формат : MPEG Audio
Версия формата : Version 1
Профиль формата : Layer 3
Режим : Joint stereo
Расширение режима : MS Stereo
Идентификатор кодека : 55
Идентификатор кодека/Подсказка : MP3
Продолжительность : 58 м. 16 с.
Вид битрейта : Постоянный
Битрейт : 192 Кбит/сек
Каналы : 2 канала
Частота : 48,0 КГц
Метод сжатия : С потерями
Размер потока : 80,0 Мбайт (10%)
Выравнивание : Соединение по промежуткам
Продолжительность промежутка : 167 мс. (4,00 видеокадра)
Время предзагрузки промежутка : 216 мс.
Заголовок : The.Chi.S01E01 English
Библиотека кодирования : LAME3.99r
Настройки программы : -m j -V 4 -q 2 -lowpass 18.6 -b 192

pb.wtf



Скачать Чи через торрент http://i100.fastpic.ru/big/2018/0319/c0/acb9a19f040ec8e89469ed29154e41c0.jpg Скачать фильм Чи через торрент бесплантно в хорошем качестве Описание: События драмы происходят в Чикаго. Герои сериала «Чи» — жители бедных южных районов города, со сложной криминогенной обстановкой. ... 10 10 2
Торрент: Зарегистрирован [2018-03-19 18:21] · скачан: 14 раз
Статус: √ проверено
Размер: 6.89 GB
Как cкачать? Как скачать Чи через торрент | qTorrent

% Раздел Тема Автор DL S | L
Зарубежные сериалы [ 7.84 GB ] Чи / The Chi / Сезон: 3 / Серии: 1-10 из 10 [2020 WEB-DLRip] MVO [FOX] bober100 Скачать
1 | 0
Зарубежные сериалы [ 34.19 GB ] Чи / The Chi / Сезон: 3 / Серии: 1-10 из 10 [2020 WEB-DL 1080p] [MVO] killermax2013 Скачать
1 | 0
Зарубежные сериалы [ 27.75 GB ] Чи / The Chi / Сезон: 3 / Серии: 1-10 из 10 [2020 WEBRip 1080p] [MVO] killermax2013 Скачать
1 | 0
Зарубежные сериалы [ 67.29 GB ] Чи / The Chi / Сезон: 2 / Серии: 1-10 из 10 [2019 WEBRip 1080p] [MVO] killermax2013 Скачать
1 | 0
Зарубежные сериалы [ 33.28 GB ] Чи / The Chi / Сезон: 1 / Серии: 1-10 из 10 [2018 WEBRip 1080p] [MVO] killermax2013 Скачать
1 | 0
Зарубежные сериалы [ 6.86 GB ] Чи / The Chi / Сезон: 1 / Серии: 1-10 из 10 [2018 WEB-DLRip] [MVO] killermax2013 Скачать
1 | 0
Зарубежные сериалы [ 22.38 GB ] Чи / The Chi / Сезон: 2 / Серии: 1-10 из 10 [2019 WEBRip 720p] DVO [Octopus] bober100 Скачать
1 | 0

28-11-2019 20:33  

Отключить всю рекламу на сайте

    Дорогой пользователь! Огромная просьба, поблагодарите релизера, оцените раздачу и оставьте свои комментарий, если Вы скачали Чи через торрент бесплатно! Внесите свою лепту в развитие PiratBit!
    Комментировать посты могут только пользователи прошедшие не сложную регистрацию
    Показать сообщения:    

    Чи через торрент
    Скачать бесплатно Чи
    Чи скачать торрент
    Чи смотреть онлайн
    Cкачать фильм Чи бесплатно
    Чи скачать торрент в хорошем качестве
    Чи смотреть онлайн бесплатно в хорошем качестве


    Вы не можете начинать темы
    Вы не можете отвечать на сообщения
    Вы не можете редактировать свои сообщения
    Вы не можете удалять свои сообщения
    Вы не можете голосовать в опросах
    Вы не можете прикреплять файлы к сообщениям
    Вы можете скачивать файлы