Ссылка на приватное зеркало нашего сайта всего за 1$. Внимание количество ограничено!!!

2 сезон

iTunes

1 сезон

1

2 сезон

2 сезон

iTunes

1 сезон

RePack

30

Ultimate

ВАЖНО

ИГРА 18+

pack

RePack

MK11
pack

Забери бонус

RePack

jed

!!Акция!!

Alien_Rage

RePack

fifa19

RePack

Assassins Creed: Odyssey

RePack

NEED FOR SPEED™ PAYBACK

4 сезон

9 сезон

Бесстыжие 9 сезон

Все сериалы

все сериалы на PB.wtf

RePack

FAR CRY 5
  

Это мы / This Is Us / Сезон: 2 / Серии: 1-18 из 18 (Кен Олин, Гленн Фикарра) [2018, Драма, комедия, WEBRip 1080p] MVO [BaibaKo] pb.wtf

Это мы через торрент pb.wtf

Размер: 70.03 GB | Добавлен: 2 года 8 мес. назад | Торрент скачан:0 раз
Скачать  

19-03-2018 18:34 Это мы Скачать торрент  

Это мы / This Is UsГод выпуска: 2018
Страна: США
Жанр: Драма, комедия
Продолжительность: ~ 00:43:00
Перевод: Профессиональный многоголосый |
Субтитры: отсутствуют

Режиссер: Кен Олин, Гленн Фикарра

rating

В ролях:

Майло Вентимилья, Мэнди Мур, Стерлинг К. Браун, Крисси Мец, Джастин Хартли, Сьюзэн Келечи Уотсон, Крис Салливан, Рон Сепас Джонс, Фэйти Херман, Джон Уэртас, Эрис Бэйкер, Джанет Монтгомери, Джералд МакРэйни, Райан Мишель Бате, Джилл Джонсон, Брэд Гэррет, Кэти Сагал

Описание:

18 миллионов ныне живущих в мире людей одновременно отмечают собственный день рождения. Но одинаковая праздничная дата — не единственное обстоятельство, объединяющее их при всей непохожести. Кто-то только что родился, но так не увидел свою скончавшуюся мать, оставаясь с переживающим трагедию отцом. Кто-то в день рождения решил найти своего родителя, бросившего его много лет назад. А кто-то всерьёз комплексует от ожирения и переедания — и большей проблемы в мире для него не существует. Но, зачастую, пути совершенно незнакомых людей переплетаются самым странным образом.

Качество: WEBRip 1080p
Формат: MKV

Видео: MPEG-4 AVC, ~ 10942 Кбит/с, 1920x1080
Аудио#1: Русский (AC3, 6 ch, 640 Кбит/с)
Аудио#2: английский (AC3, 6 ch, 640 Кбит/с)
скриншот   скриншот   скриншот   скриншот  

Общее
Уникальный идентификатор : 185457875664329346607367261958613778877 (0x8B85E33AD4B33179958B7AA76A0C41BD)
Полное имя : D:\This.Is.Us.s02.HD1080p.WEBRip.Rus.Eng.BaibaKo.tv\This.Is.Us.s02e01.HD1080p.WEBRip.Rus.Eng.BaibaKo.tv.mkv
Формат : Matroska
Версия формата : Version 4 / Version 2
Размер файла : 3,72 Гбайт
Продолжительность : 43 м. 49 с.
Общий поток : 12,2 Мбит/сек
Дата кодирования : UTC 2017-09-29 01:46:35
Программа кодирования : mkvmerge v9.3.1 ('Mask Machine') 64bit
Библиотека кодирования : libebml v1.3.4 + libmatroska v1.4.5

Видео
Идентификатор : 1
Формат : AVC
Формат/Информация : Advanced Video Codec
Профиль формата : High@L4
Параметр CABAC формата : Да
Параметр RefFrames формата : 4 кадра
Идентификатор кодека : V_MPEG4/ISO/AVC
Продолжительность : 43 м. 49 с.
Битрейт : 10,9 Мбит/сек
Ширина : 1920 пикселей
Высота : 1080 пикселей
Соотношение сторон : 16:9
Режим частоты кадров : Постоянный
Частота кадров : 23,976 (24000/1001) кадра/сек
Цветовое пространство : YUV
Субдискретизация насыщенности : 4:2:0
Битовая глубина : 8 бит
Тип развёртки : Прогрессивная
Бит/(Пиксели*Кадры) : 0.214
Размер потока : 3,26 Гбайт (87%)
Библиотека кодирования : x264 core 152 r2851 ba24899
Настройки программы : cabac=1 / ref=3 / deblock=1:0:0 / analyse=0x3:0x113 / me=hex / subme=7 / psy=1 / psy_rd=1.00:0.00 / mixed_ref=1 / me_range=16 / chroma_me=1 / trellis=1 / 8x8dct=1 / cqm=0 / deadzone=21,11 / fast_pskip=1 / chroma_qp_offset=-2 / threads=30 / lookahead_threads=5 / sliced_threads=0 / nr=0 / decimate=1 / interlaced=0 / bluray_compat=0 / constrained_intra=0 / bframes=3 / b_pyramid=2 / b_adapt=1 / b_bias=0 / direct=1 / weightb=1 / open_gop=0 / weightp=2 / keyint=240 / keyint_min=23 / scenecut=40 / intra_refresh=0 / rc_lookahead=40 / rc=crf / mbtree=1 / crf=18.0 / qcomp=0.60 / qpmin=0 / qpmax=69 / qpstep=4 / ip_ratio=1.40 / aq=1:1.00
Default : Нет
Forced : Нет

Аудио #1
Идентификатор : 2
Формат : AC-3
Формат/Информация : Audio Coding 3
Расширение режима : CM (complete main)
Параметр Endianness формата : Big
Идентификатор кодека : A_AC3
Продолжительность : 43 м. 49 с.
Вид битрейта : Постоянный
Битрейт : 640 Кбит/сек
Каналы : 6 каналов
Расположение каналов : Front: L C R, Side: L R, LFE
Частота : 48,0 КГц
Частота кадров : 31,250 кадров/сек (1536 spf)
Метод сжатия : С потерями
Размер потока : 201 Мбайт (5%)
Язык : Russian
Default : Да
Forced : Нет

Аудио #2
Идентификатор : 3
Формат : AC-3
Формат/Информация : Audio Coding 3
Расширение режима : CM (complete main)
Параметр Endianness формата : Big
Идентификатор кодека : A_AC3
Продолжительность : 43 м. 49 с.
Вид битрейта : Постоянный
Битрейт : 640 Кбит/сек
Каналы : 6 каналов
Расположение каналов : Front: L C R, Side: L R, LFE
Частота : 48,0 КГц
Частота кадров : 31,250 кадров/сек (1536 spf)
Метод сжатия : С потерями
Размер потока : 201 Мбайт (5%)
Язык : English
Default : Нет
Forced : Нет

pb.wtf



Скачать Это мы через торрент http://pic1.kartinco.top/images/11/h1ikz.jpg Скачать фильм Это мы через торрент бесплантно в хорошем качестве Описание: 18 миллионов ныне живущих в мире людей одновременно отмечают собственный день рождения. Но одинаковая праздничная дата — не ... 10 10 2
Info! Золотая раздача, скачанное не засчитывается.
Торрент: Зарегистрирован [2018-03-19 18:34] · скачан: 0 раз
Статус: √ проверено
Размер: 70.03 GB
Как cкачать? Как скачать Это мы через торрент | qTorrent

% Раздел Тема Автор DL S | L
Зарубежные сериалы [ 10.34 GB ] Это мы / This Is Us / Сезон: 2 / Серии: 1-18 из 18 [2018 WEBRip] MVO [BaibaKo] bober100 Скачать
1 | 0
Зарубежные сериалы [ 34.91 GB ] Это мы / This Is Us / Сезон: 2 / Серии: 1-18 из 18 [2018 WEBRip 720p] MVO [BaibaKo] bober100 Скачать
1 | 0

28-11-2019 20:33  

Отключить всю рекламу на сайте

    Дорогой пользователь! Огромная просьба, поблагодарите релизера, оцените раздачу и оставьте свои комментарий, если Вы скачали Это мы через торрент бесплатно! Внесите свою лепту в развитие PiratBit!
    Комментировать посты могут только пользователи прошедшие не сложную регистрацию
    Показать сообщения:    

    Это мы через торрент
    Скачать бесплатно Это мы
    Это мы скачать торрент
    Это мы смотреть онлайн
    Cкачать фильм Это мы бесплатно
    Это мы скачать торрент в хорошем качестве
    Это мы смотреть онлайн бесплатно в хорошем качестве


    Вы не можете начинать темы
    Вы не можете отвечать на сообщения
    Вы не можете редактировать свои сообщения
    Вы не можете удалять свои сообщения
    Вы не можете голосовать в опросах
    Вы не можете прикреплять файлы к сообщениям
    Вы можете скачивать файлы