MEGA NEWS Получи личный уникальный адрес сайта и защити себя от блокировок. Внимание количество ограничено!!!

iTunes

1+1

iTunes

мы

iTunes

1

iTunes

Чернобыль

iTunes

Ральф против интернета

Лицензия

ПШазам

Лицензия

Игра престолов

Лицензия

30
pack

ВАЖНО

!!Акция!!

Alien_RageХит недели

RePack

Resident Evil 21

ИГРА 18+

pack

RePack

Metro:Exodus

!!Акция!!

Alien_Rage

RePack

fifa19

RePack

Assassins Creed: Odyssey

RePack

NEED FOR SPEED™ PAYBACK

3 сезон

9 сезон

Бесстыжие 9 сезон

Все сериалы

все сериалы на PB.wtf

RePack

FAR CRY 5
Ребята, катастрофически не хватает 1900р. для оплаты серверов за АВГУСТ (всвязи с блокировками трафик упал в 3 раза), 1-2р., выручайте.
  

Астрал 4: Последний ключ / Insidious: The Last Key (Адам Робител) [2018, ужасы, триллер, WEB-DL 720p] DUB [iTunes] pb.wtf

Астрал 4: Последний ключ через торрент pb.wtf

Размер: 3.51 GB | Добавлен: 1 год 6 мес. назад | Торрент скачан:175 раз
Скачать  

19-03-2018 19:04 Астрал 4: Последний ключ Скачать торрент  

Астрал 4: Последний ключ / Insidious: The Last Key
Год выпуска: 2018
Страна: Канада, США
Жанр: ужасы, триллер, детектив
Продолжительность: 01:43:11
Перевод: Дублированный | iTunes
Субтитры: Русские (forced, full), украинские, английские

Режиссер: Адам Робител

rating

В ролях:

Кирк Асеведо, Спенсер Лок, Джош Стюарт, Лин Шэй, Энгус Сэмпсон, Хавьер Ботет, Брюс Дэвисон, Хана Хэйес, Ли Уоннелл, Кейтлин Джерард

Описание:

Новая глава истории об экстрасенсе, которая умеет разговаривать с мертвыми. На этот раз в жизнь воплощается ее самый страшный кошмар: сущности из потустороннего мира проникают в ее собственный дом.

Качество: WEB-DL 720p
Формат: MKV

Видео: MPEG-4 AVC, 1280x532, 4098 Кbit/s, 23.976 fps
Аудио#1: 48 kHz, AC3, 5.1, 384 Kbps | Дублированный | iTunes | RUS |
Аудио#2: 48 kHz, AC3, 5.1, 384 Kbps | Оригинал | ENG |
скриншот   скриншот   скриншот   скриншот   скриншот  

General
Unique ID : 63415873194888070211805019644712312383 (0x2FB573F22474A46027AE2FB06775DE3F)
Complete name : C:Video111Insidious.The.Last.Key.2018.WEB-DL.720p.ExKinoRay.mkv
Format : Matroska
Format version : Version 4 / Version 2
File size : 3.51 GiB
Duration : 1 h 43 min
Overall bit rate : 4 869 kb/s
Movie name : Insidious: The Last Key 2018 from ExKinoRay
Encoded date : UTC 2018-03-19 18:40:01
Writing application : mkvmerge v21.0.0 ('Tardigrades Will Inherit The Earth') 64-bit
Writing library : libebml v1.3.5 + libmatroska v1.4.8

Video
ID : 1
Format : AVC
Format/Info : Advanced Video Codec
Format profile : Main@L3.1
Format settings : 2 Ref Frames
Format settings, CABAC : No
Format settings, ReFrames : 2 frames
Codec ID : V_MPEG4/ISO/AVC
Duration : 1 h 43 min
Bit rate : 4 098 kb/s
Width : 1 280 pixels
Height : 532 pixels
Display aspect ratio : 2.40:1
Frame rate mode : Constant
Frame rate : 23.976 FPS
Color space : YUV
Chroma subsampling : 4:2:0
Bit depth : 8 bits
Scan type : Progressive
Bits/(Pixel*Frame) : 0.251
Stream size : 2.95 GiB (84%)
Language : English
Default : Yes
Forced : No
Color range : Limited
Color primaries : BT.709
Transfer characteristics : BT.709
Matrix coefficients : BT.709

Audio #1
ID : 2
Format : AC-3
Format/Info : Audio Coding 3
Codec ID : A_AC3
Duration : 1 h 43 min
Bit rate mode : Constant
Bit rate : 384 kb/s
Channel(s) : 6 channels
Channel positions : Front: L C R, Side: L R, LFE
Sampling rate : 48.0 kHz
Frame rate : 31.250 FPS (1536 SPF)
Bit depth : 16 bits
Compression mode : Lossy
Stream size : 283 MiB (8%)
Title : iTunes
Language : Russian
Service kind : Complete Main
Default : Yes
Forced : No

Audio #2
ID : 3
Format : AC-3
Format/Info : Audio Coding 3
Codec ID : A_AC3
Duration : 1 h 43 min
Bit rate mode : Constant
Bit rate : 384 kb/s
Channel(s) : 6 channels
Channel positions : Front: L C R, Side: L R, LFE
Sampling rate : 48.0 kHz
Frame rate : 31.250 FPS (1536 SPF)
Bit depth : 16 bits
Compression mode : Lossy
Stream size : 283 MiB (8%)
Title : Original
Language : English
Service kind : Complete Main
Default : No
Forced : No

Text #1
ID : 4
Format : UTF-8
Codec ID : S_TEXT/UTF8
Codec ID/Info : UTF-8 Plain Text
Duration : 1 h 41 min
Bit rate : 0 b/s
Count of elements : 5
Stream size : 281 Bytes (0%)
Title : Forced
Language : Russian
Default : Yes
Forced : Yes

Text #2
ID : 5
Format : UTF-8
Codec ID : S_TEXT/UTF8
Codec ID/Info : UTF-8 Plain Text
Duration : 1 h 42 min
Bit rate : 49 b/s
Count of elements : 852
Stream size : 37.0 KiB (0%)
Title : Full
Language : Russian
Default : No
Forced : No

Text #3
ID : 6
Format : UTF-8
Codec ID : S_TEXT/UTF8
Codec ID/Info : UTF-8 Plain Text
Duration : 1 h 42 min
Bit rate : 47 b/s
Count of elements : 852
Stream size : 35.6 KiB (0%)
Title : Full
Language : Ukrainian
Default : No
Forced : No

Text #4
ID : 7
Format : UTF-8
Codec ID : S_TEXT/UTF8
Codec ID/Info : UTF-8 Plain Text
Duration : 1 h 34 min
Bit rate : 34 b/s
Count of elements : 835
Stream size : 23.6 KiB (0%)
Title : Full
Language : English
Default : No
Forced : No

Menu
00:00:00.000 : en:1
00:16:08.677 : en:2
00:19:42.390 : en:3
00:22:16.334 : en:4
00:28:50.894 : en:5
00:36:11.583 : en:6
00:43:52.961 : en:7
00:54:01.444 : en:8
00:57:09.130 : en:9
01:01:55.457 : en:10
01:05:04.937 : en:11
01:10:05.237 : en:12
01:16:45.511 : en:13
01:21:58.865 : en:14
01:29:36.738 : en:15
01:34:21.521 : en:16

pb.wtf



Скачать Астрал 4: Последний ключ через торрент http://img12.lostpic.net/2018/03/16/e96b65d6af305e053251b9bc74715aab.jpg Скачать фильм Астрал 4: Последний ключ через торрент бесплантно в хорошем качестве Описание: Новая глава истории об экстрасенсе, которая умеет разговаривать с мертвыми. На этот раз в жизнь воплощается ее самый страшный ... 7.4 10 5
Торрент: Зарегистрирован [2018-03-19 19:04] · скачан: 175 раз
Статус: √ проверено
Размер: 3.51 GB
Как cкачать? Как скачать Астрал 4: Последний ключ через торрент | qTorrent

% Раздел Тема Автор DL S | L
Видео для КПК и Смартфонов [ 467 MB ] Астрал 4: Последний ключ / Insidious: The Last Key [2018 HDRip КПК] DUB [] bober100 Скачать
1 | 0
Фильмы [HD 720p, 1080p] (Хороший звук DUB, MVO) [ 10.42 GB ] Астрал 4: Последний ключ / Insidious: The Last Key [2018 BDRip 1080p ] oleg8 Скачать
2 | 0
Фильмы 2018 [DVDrip, WEB-DLRip, HDrip] (DUB, MVO) [ 1.48 GB ] Астрал 4: Последний ключ / Insidious: The Last Key [2018 BDRip-AVC] DUB [] bober100 Скачать
2 | 0
Фильмы 2018 [DVDrip, WEB-DLRip, HDrip] (DUB, MVO) [ 2.18 GB ] Астрал 4: Последний ключ / Insidious: The Last Key [2018 BDRip] - [] Twi7ter Скачать
5 | 0
Фильмы 2018 [DVDrip, WEB-DLRip, HDrip] (DUB, MVO) [ 745 MB ] Астрал 4: Последний ключ / Insidious: The Last Key [2018 BDRip] DUB [] bober100 Скачать
1 | 0
Фильмы 2018 [DVDrip, WEB-DLRip, HDrip] (DUB, MVO) [ 1.46 GB ] Астрал 4: Последний ключ / Insidious: The Last Key [2018 BDRip] DUB [] bober100 Скачать
1 | 0
Фильмы 2018 [DVDrip, WEB-DLRip, HDrip] (DUB, MVO) [ 1.46 GB ] Астрал 4: Последний ключ / Insidious: The Last Key [2018 BDRip] - [] Twi7ter Скачать
2 | 0


>> Регистрируемся здесь <<






Отзывы и комментарии о схеме читаем и пишем здесь: ---> Отзывы и комментарии о схеме

Новые благодарочки в телеграм довольных пользователей:
скриншот   скриншот   скриншот   скриншот   скриншот
    Дорогой пользователь! Огромная просьба, поблагодарите релизера, оцените раздачу и оставьте свои комментарий, если Вы скачали Астрал 4: Последний ключ через торрент бесплатно! Внесите свою лепту в развитие PiratBit!
    Комментировать посты могут только пользователи прошедшие не сложную регистрацию
    Показать сообщения:    

    Астрал 4: Последний ключ через торрент
    Скачать бесплатно Астрал 4: Последний ключ
    Астрал 4: Последний ключ скачать торрент
    Астрал 4: Последний ключ смотреть онлайн
    Cкачать фильм Астрал 4: Последний ключ бесплатно
    Астрал 4: Последний ключ скачать торрент в хорошем качестве
    Астрал 4: Последний ключ смотреть онлайн бесплатно в хорошем качестве


    Вы не можете начинать темы
    Вы не можете отвечать на сообщения
    Вы не можете редактировать свои сообщения
    Вы не можете удалять свои сообщения
    Вы не можете голосовать в опросах
    Вы не можете прикреплять файлы к сообщениям
    Вы можете скачивать файлы