Ссылка на приватное зеркало нашего сайта всего за 1$. Внимание количество ограничено!!!

2 сезон

iTunes

1 сезон

1

2 сезон

2 сезон

iTunes

1 сезон

RePack

30

Ultimate

ВАЖНО

ИГРА 18+

pack

RePack

MK11
pack

Забери бонус

RePack

jed

!!Акция!!

Alien_Rage

RePack

fifa19

RePack

Assassins Creed: Odyssey

RePack

NEED FOR SPEED™ PAYBACK

4 сезон

9 сезон

Бесстыжие 9 сезон

Все сериалы

все сериалы на PB.wtf

RePack

FAR CRY 5
  

Это мы / This Is Us / Сезон: 2 / Серии: 1-18 из 18 (Кен Олин, Гленн Фикарра) [2018, Драма, комедия, WEBRip] MVO [BaibaKo] pb.wtf

Это мы через торрент pb.wtf

Размер: 10.34 GB | Добавлен: 2 года 8 мес. назад | Торрент скачан:80 раз
Скачать  

19-03-2018 19:43 Это мы Скачать торрент  

Это мы / This Is Us
Год выпуска: 2018
Страна: США
Жанр: Драма, комедия
Продолжительность: ~ 00:43:00
Перевод: Профессиональный многоголосый |
Субтитры: отсутствуют

Режиссер: Кен Олин, Гленн Фикарра

rating

В ролях:

Майло Вентимилья, Мэнди Мур, Стерлинг К. Браун, Крисси Мец, Джастин Хартли, Сьюзэн Келечи Уотсон, Крис Салливан, Рон Сепас Джонс, Фэйти Херман, Джон Уэртас, Эрис Бэйкер, Джанет Монтгомери, Джералд МакРэйни, Райан Мишель Бате, Джилл Джонсон, Брэд Гэррет, Кэти Сагал

Описание:

18 миллионов ныне живущих в мире людей одновременно отмечают собственный день рождения. Но одинаковая праздничная дата — не единственное обстоятельство, объединяющее их при всей непохожести. Кто-то только что родился, но так не увидел свою скончавшуюся мать, оставаясь с переживающим трагедию отцом. Кто-то в день рождения решил найти своего родителя, бросившего его много лет назад. А кто-то всерьёз комплексует от ожирения и переедания — и большей проблемы в мире для него не существует. Но, зачастую, пути совершенно незнакомых людей переплетаются самым странным образом.

Качество: WEBRip
Формат: AVI

Видео: XviD, ~ 1500 Кбит/с, 720x400
Аудио#1: Русский (MP3, 2 ch, 192 Кбит/с)
Аудио#2: английский (MP3, 2 ch, 192 Кбит/с)
скриншот   скриншот   скриншот   скриншот   скриншот   скриншот  

Общее
Полное имя : D:\This.Is.Us.s02.WEBRip.XviD.Rus.Eng.BaibaKo.tv\This.Is.Us.s02e01.WEBRip.XviD.Rus.Eng.BaibaKo.tv.avi
Формат : AVI
Формат/Информация : Audio Video Interleave
Размер файла : 592 Мбайт
Продолжительность : 43 м. 49 с.
Общий поток : 1889 Кбит/сек

Видео
Идентификатор : 0
Формат : MPEG-4 Visual
Профиль формата : Advanced Simple@L5
Параметр BVOP формата : 2
Параметр QPel формата : Нет
Параметр GMC формата : Без точки перехода
Параметр матрицы формата : Default (H.263)
Идентификатор кодека : XVID
Идентификатор кодека/Подсказка : XviD
Продолжительность : 43 м. 49 с.
Битрейт : 1498 Кбит/сек
Ширина : 720 пикселей
Высота : 400 пикселей
Соотношение сторон : 16:9
Частота кадров : 23,976 (24000/1001) кадра/сек
Цветовое пространство : YUV
Субдискретизация насыщенности : 4:2:0
Битовая глубина : 8 бит
Тип развёртки : Прогрессивная
Метод сжатия : С потерями
Бит/(Пиксели*Кадры) : 0.217
Размер потока : 470 Мбайт (79%)
Библиотека кодирования : XviD 65

Аудио #1
Идентификатор : 1
Формат : MPEG Audio
Версия формата : Version 1
Профиль формата : Layer 3
Режим : Joint stereo
Расширение режима : MS Stereo
Идентификатор кодека : 55
Идентификатор кодека/Подсказка : MP3
Продолжительность : 43 м. 49 с.
Вид битрейта : Постоянный
Битрейт : 192 Кбит/сек
Каналы : 2 канала
Частота : 48,0 КГц
Метод сжатия : С потерями
Размер потока : 60,2 Мбайт (10%)
Выравнивание : Соединение по промежуткам
Продолжительность промежутка : 167 мс. (4,00 видеокадра)
Время предзагрузки промежутка : 216 мс.
Заголовок : This.Is.Us.S02E01 RUS
Библиотека кодирования : LAME3.99r
Настройки программы : -m j -V 4 -q 2 -lowpass 18.6 -b 192

Аудио #2
Идентификатор : 2
Формат : MPEG Audio
Версия формата : Version 1
Профиль формата : Layer 3
Режим : Joint stereo
Расширение режима : MS Stereo
Идентификатор кодека : 55
Идентификатор кодека/Подсказка : MP3
Продолжительность : 43 м. 49 с.
Вид битрейта : Постоянный
Битрейт : 192 Кбит/сек
Каналы : 2 канала
Частота : 48,0 КГц
Метод сжатия : С потерями
Размер потока : 60,2 Мбайт (10%)
Выравнивание : Соединение по промежуткам
Продолжительность промежутка : 167 мс. (4,00 видеокадра)
Время предзагрузки промежутка : 216 мс.
Заголовок : This.Is.Us.S02E01 English
Библиотека кодирования : LAME3.99r
Настройки программы : -m j -V 4 -q 2 -lowpass 18.6 -b 192

pb.wtf



Скачать Это мы через торрент http://pic1.kartinco.top/images/11/h1ikz.jpg Скачать фильм Это мы через торрент бесплантно в хорошем качестве Описание: 18 миллионов ныне живущих в мире людей одновременно отмечают собственный день рождения. Но одинаковая праздничная дата — не ... 10 10 1
Торрент: Зарегистрирован [2018-03-19 19:43] · скачан: 80 раз
Статус: √ проверено
Размер: 10.34 GB
Как cкачать? Как скачать Это мы через торрент | qTorrent

% Раздел Тема Автор DL S | L
Зарубежные сериалы [ 34.91 GB ] Это мы / This Is Us / Сезон: 2 / Серии: 1-18 из 18 [2018 WEBRip 720p] MVO [BaibaKo] bober100 Скачать
1 | 0
Зарубежные сериалы [ 70.03 GB ] Это мы / This Is Us / Сезон: 2 / Серии: 1-18 из 18 [2018 WEBRip 1080p] MVO [BaibaKo] bober100 Скачать
1 | 0

28-11-2019 20:33  

Отключить всю рекламу на сайте

20-03-2018 14:01 Это мы Скачать торрент  

А что на счет 1 сезона ?pb.wtf



    Дорогой пользователь! Огромная просьба, поблагодарите релизера, оцените раздачу и оставьте свои комментарий, если Вы скачали Это мы через торрент бесплатно! Внесите свою лепту в развитие PiratBit!
    Комментировать посты могут только пользователи прошедшие не сложную регистрацию
    Показать сообщения:    

    Это мы через торрент
    Скачать бесплатно Это мы
    Это мы скачать торрент
    Это мы смотреть онлайн
    Cкачать фильм Это мы бесплатно
    Это мы скачать торрент в хорошем качестве
    Это мы смотреть онлайн бесплатно в хорошем качестве


    Вы не можете начинать темы
    Вы не можете отвечать на сообщения
    Вы не можете редактировать свои сообщения
    Вы не можете удалять свои сообщения
    Вы не можете голосовать в опросах
    Вы не можете прикреплять файлы к сообщениям
    Вы можете скачивать файлы