Ссылка на приватное зеркало нашего сайта всего за 1$. Внимание количество ограничено!!!

2 сезон

iTunes

1 сезон

1

2 сезон

2 сезон

iTunes

1 сезон

RePack

30

Ultimate

ВАЖНО

ИГРА 18+

pack

RePack

MK11
pack

Забери бонус

RePack

jed

!!Акция!!

Alien_Rage

RePack

fifa19

RePack

Assassins Creed: Odyssey

RePack

NEED FOR SPEED™ PAYBACK

4 сезон

9 сезон

Бесстыжие 9 сезон

Все сериалы

все сериалы на PB.wtf

RePack

FAR CRY 5
  

Вне времени / Timeless / Сезон: 2 / Серии: 1-10 из 10 (Нил Маршалл) [2018, Фантастика, боевик, драма, приключения, WEB-DLRip] MVO [NewStudio] pb.wtf

Вне времени через торрент pb.wtf

Размер: 5.42 GB | Добавлен: 2 года 6 мес. назад | Торрент скачан:16 раз
Скачать  

19-03-2018 19:58 Вне времени Скачать торрент  

Вне времени / TimelessГод выпуска: 2018
Страна: США
Жанр: Фантастика, боевик, драма, приключения
Продолжительность: ~ 00:45:00
Перевод: Профессиональный многоголосый |
Субтитры: отсутствуют

Режиссер: Нил Маршалл

rating

В ролях:

Клаудия Дурмит, Мэтт Фрюэр, Джордан Гардинер, Брекен Ханке, Сакина Джэффри, Хиро Канагава, Тревор Лернер

Описание:

Сюжет повествует о команде из трёх человек, путешествующих по времени в поисках могущественного гада, который вознамерился переписать историю человечества. Если трио не успеет сработаться и сорвать преступный план, миру, естественно, грозит катастрофа.

Качество: WEB-DLRip
Формат: AVI

Видео: XviD, ~ 1500 Кбит/с, 720x400
Аудио#1: Русский (МР3, 2 ch, 128 Кбит/с)
Аудио#2: английский (МР3, 2 ch, 128 Кбит/с)
скриншот   скриншот  скриншот  

Allgemein
Полное имя : F:\Timeless (Season 02)\Timeless.s02e01.WEBDLRip.NewStudio.TV.avi
Формат : AVI
Формат/Информация : Audio Video Interleave
Размер файла : 550 MiB
Продолжительность : 43 min 10s
Общий поток : 1 782 kb/s
Программа кодирования : VirtualDubMod 1.5.10.2 (build 2540/release)
Библиотека кодирования : VirtualDubMod build 2540/release

Video
Идентификатор : 0
Формат : MPEG-4 Visual
Профиль формата : Advanced Simple@L5
Параметр BVOP формата : 2
Параметр QPel формата : Ja
Параметр GMC формата : Keine warppoints
Параметр матрицы формата : Default (MPEG)
Режим смешивания : Packed bitstream
Идентификатор кодека : XVID
Идентификатор кодека/Подсказка : XviD
Продолжительность : 43 min 10s
Битрейт : 1 444 kb/s
Ширина : 720 Pixel
Высота : 400 Pixel
Соотношение сторон : 16:9
Частота кадров : 23,976 (23976/1000) FPS
Цветовое пространство : YUV
Субдискретизация насыщенности : 4:2:0
Битовая глубина : 8 bits
Тип развёртки : progressiv
Бит/(Пиксели*Кадры) : 0.209
Размер потока : 446 MiB (81%)
Библиотека кодирования : XviD 67

Audio #1
Идентификатор : 1
Формат : MPEG Audio
Версия формата : Version 1
Профиль формата : Layer 3
Режим : Joint stereo
Расширение режима : MS Stereo
Идентификатор кодека : 55
Идентификатор кодека/Подсказка : MP3
Продолжительность : 43 min 10s
Вид битрейта : konstant
Битрейт : 128 kb/s
Каналы : 2 Kanäle
Частота : 48,0 kHz
Размер потока : 39,5 MiB (7%)
Выравнивание : Ausgerichtet an Interleaves

Audio #2
Идентификатор : 2
Формат : MPEG Audio
Версия формата : Version 1
Профиль формата : Layer 3
Режим : Joint stereo
Идентификатор кодека : 55
Идентификатор кодека/Подсказка : MP3
Продолжительность : 43 min 10s
Вид битрейта : konstant
Битрейт : 128 kb/s
Каналы : 2 Kanäle
Частота : 48,0 kHz
Размер потока : 39,5 MiB (7%)
Выравнивание : Ausgerichtet an Interleaves
Библиотека кодирования : LAME3.99r
Настройки программы : -m j -V 4 -q 2 -lowpass 17 -b 128

Внимание! Раздача ведётся путём добавления новых серий; при каждом добавлении создётся новый торрент. Чтобы начать докачку новой серии, пользователям необходимо сделать следующее:
Остановить скачивание.
Удалить старый торрент у себя из клиента (старые серии удалять не надо).
Скачать новый торрент и запустить его у себя в клиенте вместо старого, при этом указать клиенту путь в старую папку куда и должно происходить скачивание новых серий.
Ваш клиент при этом должен произвести хеширование (проверку) старой папки (если не производит сам - помогите ему сделать это), и будет докачивать только те серии которых у вас ещё нет. Старые серии при этом не удаляются, а продолжают раздаваться!
Eсли вы уже удалили старые серии, то предотвратить повторную закачку старых серий можно, отжав галочку в соответсвующих местах при запуске нового торрента. По возможности, желательно не удалять старые серии как можно дольше чтобы релизёр не столько продолжал раздавать старые серии, а смог сконцентрироваться на новых.
pb.wtf



Скачать Вне времени через торрент http://i100.fastpic.ru/big/2018/0223/b9/aa3ac3d38fea52cbf09adb710b6da7b9.png Скачать фильм Вне времени через торрент бесплантно в хорошем качестве Описание: Сюжет повествует о команде из трёх человек, путешествующих по времени в поисках могущественного гада, который вознамерился ... 10 10 2
Торрент: Зарегистрирован [2018-05-26 18:25] · скачан: 16 раз
Статус: √ проверено
Размер: 5.42 GB
Как cкачать? Как скачать Вне времени через торрент | qTorrent

% Раздел Тема Автор DL S | L
Зарубежные сериалы [ 30.84 GB ] Вне времени / Timeless / Сезон: 2 / Серии: 1-12 из 12 [2018 WEB-DL 1080p] MVO [LostFilm] bober100 Скачать
1 | 0
Зарубежные сериалы [ 14.58 GB ] Вне времени / Timeless / Сезон: 2 / Серии: 1-10 из 10 [2018 WEB-DL 720p] MVO [NewStudio] bober100 Скачать
1 | 0
Зарубежные сериалы [ 28.99 GB ] Вне времени / Timeless / Сезон: 2 / Серии: 1-12 из 12 [2018 WEB-DL 1080p] MVO [Jaskier] bober100 Скачать
1 | 0
Зарубежные сериалы [ 3.91 GB ] Вне времени / Timeless / Сезон: 2 / Серии 1-10 из 10 [2018 WEB-DLRip] MVO [Lostfilm] GEKADOL Скачать
1 | 0

28-11-2019 20:33  

Отключить всю рекламу на сайте

    Дорогой пользователь! Огромная просьба, поблагодарите релизера, оцените раздачу и оставьте свои комментарий, если Вы скачали Вне времени через торрент бесплатно! Внесите свою лепту в развитие PiratBit!
    Комментировать посты могут только пользователи прошедшие не сложную регистрацию
    Показать сообщения:    

    Вне времени через торрент
    Скачать бесплатно Вне времени
    Вне времени скачать торрент
    Вне времени смотреть онлайн
    Cкачать фильм Вне времени бесплатно
    Вне времени скачать торрент в хорошем качестве
    Вне времени смотреть онлайн бесплатно в хорошем качестве


    Вы не можете начинать темы
    Вы не можете отвечать на сообщения
    Вы не можете редактировать свои сообщения
    Вы не можете удалять свои сообщения
    Вы не можете голосовать в опросах
    Вы не можете прикреплять файлы к сообщениям
    Вы можете скачивать файлы