Ссылка на приватное зеркало нашего сайта всего за 1$. Внимание количество ограничено!!!

2 сезон

iTunes

1 сезон

1

iTunes

iTunes

iTunes

1 сезон

RePack

30

ИГРА 18+

pack

ВАЖНО

!!Акция!!

Alien_RageХит недели

RePack

MK11
pack

Забери бонус

RePack

jed

!!Акция!!

Alien_Rage

RePack

fifa19

RePack

Assassins Creed: Odyssey

RePack

NEED FOR SPEED™ PAYBACK

4 сезон

9 сезон

Бесстыжие 9 сезон

Все сериалы

все сериалы на PB.wtf

RePack

FAR CRY 5
  

Кладовая жизни / Серии 1-8 из 8 (Александр Итыгилов) [2018 г., Мелодрама, WEB-DLRip] pb.wtf

Кладовая жизни через торрент pb.wtf

Размер: 4.68 GB | Добавлен: 2 года 7 мес. назад | Торрент скачан:53 раза
Скачать  

20-03-2018 04:14 Кладовая жизни Скачать торрент  

Кладовая жизни / Серии 1-8 из 8
Год выпуска: 2018
Страна: Украина, "УПС"
Жанр: Мелодрама
Продолжительность: 8 х 00:45:00
Перевод: Не требуется | Русский
Субтитры: нет

Режиссер: Александр Итыгилов

В ролях: Елена Шилова, Павел Баршак, Антон Соколов, Вера Шпак, Виталий Салий, Полина Василина, Михаил Жонин, Леонид Громов, Ксения Николаева

Описание: Сложное время начала 90-х многое меняет в семье Савчуков. Сначала с завода уходит двадцатилетний Саша, младший сын Степана и Марии. Кооператив, в который он устраивается работать, оказывается причастен к ряду квартирных краж. Дело это расследует брат Саши Павел. Отношения у братьев хуже некуда. И дело не в преступной деятельности кооператива - Саша к происходящему не причастен. А в том, что заводская медсестра Оксана, в которую Саша давно и безнадежно влюблен, оказывается невестой старшего брата. В то же время у Марии обостряется астма. И вся семья по рекомендации врача переезжает за город. Там, глядя на торгующих у автовокзала всякой всячиной старушек, Саша решает создать упорядоченный рынок.

Качество: WEB-DLRip
Формат: AVI
Видео кодек: Xviд
Аудио кодек: MP3

Видео: XviD, 1750 Kбит/с, 720x400
Аудио#1: МР3, 2 ch, 128 Кбит/с
скриншот   скриншот   скриншот   скриншот  

General
Complete name : H:\релизы.торрентфайл\Kladovaja.zhizni.WEB-DLRip.[www.riperam.org]\1.Kladovaja.zhizni.WEB-DLRip.[www.riperam.org].avi
Format : AVI
Format/Info : Audio Video Interleave
File size : 636 MiB
Duration : 47mn 5s
Overall bit rate : 1 888 Kbps
Writing application : VirtualDubMod 1.5.10.3 | www.virtualdub-fr.org || (build 2550/release)
Writing library : VirtualDubMod build 2550/release

Video
ID : 0
Format : MPEG-4 Visual
Format profile : Advanced Simple@L5
Format settings, BVOP : 2
Format settings, QPel : No
Format settings, GMC : No warppoints
Format settings, Matrix : Default (H.263)
Codec ID : XVID
Codec ID/Hint : XviD
Duration : 47mn 5s
Bit rate : 1 750 Kbps
Width : 720 pixels
Height : 400 pixels
Display aspect ratio : 16:9
Frame rate : 25.000 fps
Color space : YUV
Chroma subsampling : 4:2:0
Bit depth : 8 bits
Scan type : Progressive
Compression mode : Lossy
Bits/(Pixel*Frame) : 0.243
Stream size : 589 MiB (93%)
Writing library : XviD 1.2.1 (UTC 2008-12-04)

Audio
ID : 1
Format : MPEG Audio
Format version : Version 1
Format profile : Layer 3
Codec ID : 55
Codec ID/Hint : MP3
Duration : 47mn 4s
Bit rate mode : Constant
Bit rate : 128 Kbps
Channel(s) : 2 channels
Sampling rate : 48.0 KHz
Compression mode : Lossy
Stream size : 43.1 MiB (7%)
Alignment : Aligned on interleaves
Interleave, duration : 40 ms (1.00 video frame)
Interleave, preload duration : 504 ms
Writing library : LAME3.99r
Encoding settings : -m s -V 4 -q 9 -lowpass 17 -b 128

Внимание! Раздача ведётся путём добавления новых серий; при каждом добавлении создётся новый торрент. Чтобы начать докачку новой серии, пользователям необходимо сделать следующее:
  • Остановить скачивание,
  • Удалить старый торрент у себя из клиента (старые серии удалять не надо),
  • Скачать новый торрент и запустить его у себя в клиенте вместо старого, при этом указать клиенту путь в старую папку куда и должно происходить скачивание новых серий.
Ваш клиент при этом должен произвести хеширование (проверку) старой папки (если не производит сам - помогите ему сделать это), и будет докачивать только те серии которых у вас ещё нет. Старые серии при этом не удаляются, а продолжают раздаваться!

Eсли вы уже удалили старые серии, то предотвратить повторную закачку старых серий можно, отжав галочку в соответсвующих местах при запуске нового торрента. По возможности, желательно не удалять старые серии как можно дольше чтобы релизёр не столько продолжал раздавать старые серии, а смог сконцентрироваться на новых.
pb.wtf



Скачать Кладовая жизни через торрент http://i102.fastpic.ru/big/2018/0320/af/c0e9a35563b39642f69ddd874e928daf.jpg Скачать фильм Кладовая жизни через торрент бесплантно в хорошем качестве Описание: Сложное время начала 90-х многое меняет в семье Савчуков. Сначала с завода уходит двадцатилетний Саша, младший сын Степана и ... 10 10 4
Торрент: Зарегистрирован [2018-03-22 22:56] · скачан: 53 раз
Статус: √ проверено
Размер: 4.68 GB
Как cкачать? Как скачать Кладовая жизни через торрент | qTorrent



Последний раз редактировалось: oleg8 (2018-03-22 22:56), всего редактировалось 4 раз(а)

28-11-2019 20:33  

Отключить всю рекламу на сайте

20-03-2018 06:40 Кладовая жизни Скачать торрент  

oleg8, Страна Украина указываем о переводе, Если раздача ведется путем добавления новых серий. Добавляем инструкцию по обновлению торрента и докачке новых серий, Правила оформления раздач в разделе «Наши Сериалы» pb.wtf



20-03-2018 07:22 Кладовая жизни Скачать торрент  

bober100 писал(а):

oleg8, Страна Украина указываем о переводе, Если раздача ведется путем добавления новых серий. Добавляем инструкцию по обновлению торрента и докачке новых серий, Правила оформления раздач в разделе «Наши Сериалы»

поправил.pb.wtf



22-03-2018 22:57 Кладовая жизни Скачать торрент  

Добавил по 8 серию.Сериал завершен.pb.wtf



    Дорогой пользователь! Огромная просьба, поблагодарите релизера, оцените раздачу и оставьте свои комментарий, если Вы скачали Кладовая жизни через торрент бесплатно! Внесите свою лепту в развитие PiratBit!
    Комментировать посты могут только пользователи прошедшие не сложную регистрацию
    Показать сообщения:    

    Кладовая жизни через торрент
    Скачать бесплатно Кладовая жизни
    Кладовая жизни скачать торрент
    Кладовая жизни смотреть онлайн
    Cкачать фильм Кладовая жизни бесплатно
    Кладовая жизни скачать торрент в хорошем качестве
    Кладовая жизни смотреть онлайн бесплатно в хорошем качестве


    Вы не можете начинать темы
    Вы не можете отвечать на сообщения
    Вы не можете редактировать свои сообщения
    Вы не можете удалять свои сообщения
    Вы не можете голосовать в опросах
    Вы не можете прикреплять файлы к сообщениям
    Вы можете скачивать файлы