Marvel's Avengers Deluxe Edition (супер цена) 159р. Внимание количество ограничено!!!

2 сезон

iTunes

iTunes

1

iTunes

iTunes

iTunes

WEBRip

iTunes

30
pack

Новость дня

ВАЖНО

!!Акция!!

Alien_RageХит недели

RePack

Horizon Zero Dawn

ИГРА 18+

pack

RePack

jed

!!Акция!!

Alien_Rage

RePack

fifa19

RePack

Assassins Creed: Odyssey

RePack

NEED FOR SPEED™ PAYBACK

4 сезон

9 сезон

Бесстыжие 9 сезон

Все сериалы

все сериалы на PB.wtf

RePack

FAR CRY 5
  

Учитывая любовь и другую магию / Considering Love and Other Magic (Дэвид Шульц) [2017, фэнтези, драма, семейный, WEB-DL 720p] MVO ["Синема УС"] pb.wtf

Учитывая любовь и другую магию через торрент pb.wtf

Размер: 3.19 GB | Добавлен: 2 года 6 мес. назад | Торрент скачан:57 раз
Скачать  

20-03-2018 07:09 Учитывая любовь и другую магию Скачать торрент  

Учитывая любовь и другую магию / Considering Love and Other Magic
Год выпуска: 2017
Страна: Канада
Жанр: фэнтези, драма, семейный
Продолжительность: 01:35:10
Перевод: Любительский (многоголосый) | "Синема УС"
Субтитры: отсутствуют

Режиссер: Дэвид Шульц

rating

В ролях:

Джордан Баттерилл, Дарси Фер, Райан Грэнтхем, Шила МакКарти, Эрик МакКормак, Мэдди Филлипс, Рори Дж. Сапер, Нэнси Сорел

Описание:

Неспокойная девочка-подросток подружилась с робким мальчиком, который настаивает, что он не покидал свой дом более шестидесяти лет.

Качество: WEB-DL 720p
Формат: AVI

Видео: 4411 Kb/s, 1280x534
Аудио#1: Русский, (AC3, 2 ch, 384 Кбит/с)
скриншот  скриншот  скриншот  

Общее
Уникальный идентификатор : 198786198367852425929016924926699673560 (0x958CD4463D0FD702BD450D00894C97D8)
Полное имя : D:\Considering.Love.and.Other.Magic.2016.P.WEB-DL.72Op_KOSHARA.mkv
Формат : Matroska
Версия формата : Version 2
Размер файла : 3,19 Гбайт
Продолжительность : 1 ч. 35 м.
Режим общего битрейта : Переменный
Общий поток : 4797 Кбит/сек
Дата кодирования : UTC 2018-03-19 20:21:01
Программа кодирования : mkvmerge v8.3.0 ('Over the Horizon') 64bit
Библиотека кодирования : libebml v1.3.1 + libmatroska v1.4.2

Видео
Идентификатор : 1
Формат : AVC
Формат/Информация : Advanced Video Codec
Профиль формата : High@L4.1
Параметр CABAC формата : Да
Параметр RefFrames формата : 4 кадра
Идентификатор кодека : V_MPEG4/ISO/AVC
Продолжительность : 1 ч. 35 м.
Вид битрейта : Переменный
Битрейт : 4411 Кбит/сек
Максимальный битрейт : 5000 Кбит/сек
Ширина : 1280 пикселей
Высота : 534 пикселя
Соотношение сторон : 2,40:1
Режим частоты кадров : Постоянный
Частота кадров : 23,976 (24000/1001) кадра/сек
Стандарт вещания : Component
Цветовое пространство : YUV
Субдискретизация насыщенности : 4:2:0
Битовая глубина : 8 бит
Тип развёртки : Прогрессивная
Бит/(Пиксели*Кадры) : 0.263
Размер потока : 2,87 Гбайт (90%)
Default : Да
Forced : Нет
Цветовой диапазон : Limited
Основные цвета : BT.709
Характеристики трансфера : BT.709
Коэффициенты матрицы : BT.709

Аудио
Идентификатор : 2
Формат : AC-3
Формат/Информация : Audio Coding 3
Расширение режима : CM (complete main)
Параметр Endianness формата : Big
Идентификатор кодека : A_AC3
Продолжительность : 1 ч. 35 м.
Вид битрейта : Постоянный
Битрейт : 384 Кбит/сек
Каналы : 2 канала
Расположение каналов : Front: L R
Частота : 48,0 КГц
Частота кадров : 31,250 кадров/сек (1536 spf)
Метод сжатия : С потерями
Размер потока : 261 Мбайт (8%)
Default : Да
Forced : Нет

pb.wtf



Скачать Учитывая любовь и другую магию через торрент http://img12.lostpic.net/2018/03/20/e4a136377ed05ca310879c407ebe95a3.jpg Скачать фильм Учитывая любовь и другую магию через торрент бесплантно в хорошем качестве Описание: Неспокойная девочка-подросток подружилась с робким мальчиком, который настаивает, что он не покидал свой дом более шестидесяти ... 10 10 2
Торрент: Зарегистрирован [2018-03-20 07:09] · скачан: 57 раз
Статус: T временная
Размер: 3.19 GB
Как cкачать? Как скачать Учитывая любовь и другую магию через торрент | qTorrent

% Раздел Тема Автор DL S | L
T Фильмы (мультфильмы) cо спонсором показа (Новинки AVI/MKV) [ 1.36 GB ] Учитывая любовь и другую магию / Considering Love and Other Magic [2017 WEB-DLRip] MVO ["Синема УС"] bober100 Скачать
1 | 0

28-11-2019 20:33  

Отключить всю рекламу на сайте

    Дорогой пользователь! Огромная просьба, поблагодарите релизера, оцените раздачу и оставьте свои комментарий, если Вы скачали Учитывая любовь и другую магию через торрент бесплатно! Внесите свою лепту в развитие PiratBit!
    Комментировать посты могут только пользователи прошедшие не сложную регистрацию
    Показать сообщения:    

    Учитывая любовь и другую магию через торрент
    Скачать бесплатно Учитывая любовь и другую магию
    Учитывая любовь и другую магию скачать торрент
    Учитывая любовь и другую магию смотреть онлайн
    Cкачать фильм Учитывая любовь и другую магию бесплатно
    Учитывая любовь и другую магию скачать торрент в хорошем качестве
    Учитывая любовь и другую магию смотреть онлайн бесплатно в хорошем качестве


    Вы не можете начинать темы
    Вы не можете отвечать на сообщения
    Вы не можете редактировать свои сообщения
    Вы не можете удалять свои сообщения
    Вы не можете голосовать в опросах
    Вы не можете прикреплять файлы к сообщениям
    Вы можете скачивать файлы