новый адрес
Ссылка на приватное зеркало всего за 1$. Внимание количество ограничено!!!

iTunes

1+1

iTunes

мы

WEB-DL

1

iTunes

Чернобыль

iTunes

Ральф против интернета

Лицензия

ПШазам

Лицензия

Оно 2

Лицензия

30
pack

Вам бонус

ВАЖНО

!!Акция!!

Alien_RageХит недели

RePack

Resident Evil 21

ИГРА 18+

pack

RePack

jed

!!Акция!!

Alien_Rage

RePack

fifa19

RePack

Assassins Creed: Odyssey

RePack

NEED FOR SPEED™ PAYBACK

3 сезон

9 сезон

Бесстыжие 9 сезон

Все сериалы

все сериалы на PB.wtf

RePack

FAR CRY 5
Ребята, катастрофически не хватает 1900р. для оплаты серверов за Октябрь (всвязи с блокировками трафик упал в 3 раза), 1-2р., выручайте.
  

Добро пожаловать, незнакомец / Welcome the Stranger (Джастин Келли) [2018, драма, детектив, WEB-DLRip-AVC] MVO [Лицензия / iTunes] pb.wtf

Добро пожаловать, незнакомец через торрент pb.wtf

Размер: 1.46 GB | Добавлен: 1 год 8 мес. назад | Торрент скачан:219 раз
Скачать  

20-03-2018 11:58 Добро пожаловать, незнакомец Скачать торрент  

Добро пожаловать, незнакомец / Welcome the Stranger
Год выпуска: 2018
Страна: США
Жанр: драма, детектив
Продолжительность: 01:34:10
Перевод: Профессиональный многоголосый | Лицензия / iTunes
Субтитры: Русские, английские

Режиссер: Джастин Келли

rating

В ролях:

Райли Кио, Калеб Лэндри Джонс, Эбби Ли, Розмари Ховард, John Clofine

Описание:

Элис приезжает в дом к брату Итану, с которым не общалась уже много лет. Она надеется наладить с ним отношения, но тут в дело вмешивается подружка брата, Мисти. Странная и загадочная девушка Итана, видения и паранойя Элис и большой изолированный от всего мира дом заставляет героев по-новому оценить окружающую реальность.

Качество: WEB-DLRip-AVC
Формат: MKV

Видео: 1024x426 (2.40:1), 23,976 fps, x264 ~1 641 kbps avg, 0.157 bit/pixel
Аудио#1: 48 kHz, AC3 Dolby Digital, 3/2 (L,C,R,l,r) + LFE ch, ~384.00 kbps avg | RUS (iTunes)
Аудио#2: 48 kHz, AC3 Dolby Digital, 2 (L,R) ch, ~192.00 kbps avg | ENG
скриншот   скриншот   скриншот   скриншот   скриншот   скриншот  

Общее
Уникальный идентификатор : 189111642089560044154725444362058034745 (0x8E4593D2AA673535B1AD7C7A0E6F6E39)
Полное имя : E:OlLanDGroupWelcome.The.Stranger.2018.WEB-DLRip(AVC).OlLanDGroup.mkv
Формат : Matroska
Версия формата : Version 2
Размер файла : 1,46 Гбайт
Продолжительность : 1 ч. 34 м.
Общий поток : 2216 Кбит/сек
Название фильма : Welcome.The.Stranger.2018 #TorpedoUK#
Дата кодирования : UTC 2018-03-20 08:09:18
Программа кодирования : mkvmerge v7.8.0 ('River Man') 32bit built on Apr 3 2015 12:11:22
Библиотека кодирования : libebml v1.3.1 + libmatroska v1.4.2

Видео
Идентификатор : 1
Формат : AVC
Формат/Информация : Advanced Video Codec
Профиль формата : High@L4.1
Параметр CABAC формата : Да
Параметр ReFrames формата : 10 кадров
Идентификатор кодека : V_MPEG4/ISO/AVC
Продолжительность : 1 ч. 34 м.
Битрейт : 1641 Кбит/сек
Ширина : 1024 пикселя
Высота : 426 пикселей
Соотношение сторон : 2,40:1
Режим частоты кадров : Постоянный
Частота кадров : 23,976 (24000/1001) кадра/сек
Цветовое пространство : YUV
Субдискретизация насыщенности : 4:2:0
Битовая глубина : 8 бит
Тип развёртки : Прогрессивная
Бит/(Пиксели*Кадры) : 0.157
Размер потока : 1,05 Гбайт (72%)
Библиотека кодирования : x264 core 146 r2538 121396c
Настройки программы : cabac=1 / ref=10 / deblock=1:-2:-3 / analyse=0x3:0x133 / me=umh / subme=11 / psy=1 / psy_rd=0.97:0.07 / mixed_ref=1 / me_range=48 / chroma_me=1 / trellis=2 / 8x8dct=1 / cqm=0 / deadzone=21,11 / fast_pskip=1 / chroma_qp_offset=-3 / threads=6 / lookahead_threads=1 / sliced_threads=0 / nr=0 / decimate=1 / interlaced=0 / bluray_compat=0 / constrained_intra=0 / bframes=10 / b_pyramid=2 / b_adapt=2 / b_bias=0 / direct=3 / weightb=1 / open_gop=0 / weightp=2 / keyint=240 / keyint_min=23 / scenecut=40 / intra_refresh=0 / rc_lookahead=40 / rc=2pass / mbtree=0 / bitrate=1641 / ratetol=1.0 / qcomp=0.60 / qpmin=0 / qpmax=69 / qpstep=4 / cplxblur=20.0 / qblur=0.5 / vbv_maxrate=50000 / vbv_bufsize=62500 / nal_hrd=none / filler=0 / ip_ratio=1.40 / pb_ratio=1.30 / aq=1:1.00
Default : Да
Forced : Нет

Аудио #1
Идентификатор : 2
Формат : AC-3
Формат/Информация : Audio Coding 3
Расширение режима : CM (complete main)
Параметр Endianness формата : Big
Идентификатор кодека : A_AC3
Продолжительность : 1 ч. 34 м.
Вид битрейта : Постоянный
Битрейт : 384 Кбит/сек
Каналы : 6 каналов
Расположение каналов : Front: L C R, Side: L R, LFE
Частота : 48,0 КГц
Частота кадров : 31,250 кадров/сек (1536 spf)
Битовая глубина : 16 бит
Метод сжатия : С потерями
Размер потока : 259 Мбайт (17%)
Заголовок : [MVO] DD 5.1 @ 384 kbps (iTunes)
Язык : Russian
Default : Да
Forced : Нет

Аудио #2
Идентификатор : 3
Формат : AC-3
Формат/Информация : Audio Coding 3
Расширение режима : CM (complete main)
Параметр Endianness формата : Big
Идентификатор кодека : A_AC3
Продолжительность : 1 ч. 34 м.
Вид битрейта : Постоянный
Битрейт : 192 Кбит/сек
Каналы : 2 канала
Расположение каналов : Front: L R
Частота : 48,0 КГц
Частота кадров : 31,250 кадров/сек (1536 spf)
Битовая глубина : 16 бит
Метод сжатия : С потерями
Размер потока : 129 Мбайт (9%)
Заголовок : [Original] DD 2.0 @ 192 kbps (iTunes)
Язык : English
Default : Нет
Forced : Нет

Текст #1
Идентификатор : 4
Формат : UTF-8
Идентификатор кодека : S_TEXT/UTF8
Идентификатор кодека/Информация : UTF-8 Plain Text
Заголовок : Forced
Язык : Russian
Default : Да
Forced : Да

Текст #2
Идентификатор : 5
Формат : UTF-8
Идентификатор кодека : S_TEXT/UTF8
Идентификатор кодека/Информация : UTF-8 Plain Text
Заголовок : Full-length
Язык : Russian
Default : Нет
Forced : Нет

Текст #3
Идентификатор : 6
Формат : UTF-8
Идентификатор кодека : S_TEXT/UTF8
Идентификатор кодека/Информация : UTF-8 Plain Text
Заголовок : Full-length
Язык : English
Default : Нет
Forced : Нет

Меню
00:00:00.000 : en:1
00:05:47.889 : en:2
00:12:28.331 : en:3
00:18:59.513 : en:4
00:23:54.975 : en:5
00:30:28.702 : en:6
00:35:05.645 : en:7
00:42:41.726 : en:8
00:47:44.153 : en:9
00:54:41.069 : en:10
01:00:46.309 : en:11
01:06:26.732 : en:12
01:11:49.763 : en:13
01:20:59.312 : en:14
01:24:25.351 : en:15
01:28:11.118 : en:16

pb.wtf



Скачать Добро пожаловать, незнакомец через торрент http://lostpix.com/img/2018-03/20/4v5lc3zrbix2i109qlvz78zt6.jpg Скачать фильм Добро пожаловать, незнакомец через торрент бесплантно в хорошем качестве Описание: Элис приезжает в дом к брату Итану, с которым не общалась уже много лет. Она надеется наладить с ним отношения, но тут в дело ... 8.2 10 5
Торрент: Зарегистрирован [2018-03-20 11:58] · скачан: 219 раз
Статус: √ проверено
Размер: 1.46 GB
Как cкачать? Как скачать Добро пожаловать, незнакомец через торрент | qTorrent

% Раздел Тема Автор DL S | L
Фильмы (WEB-DL 720p, 1080p) [ 3.15 GB ] Добро пожаловать незнакомец / Welcome the Stranger [2018 WEB-DL 720p] MVO bober100 Скачать
1 | 0
Фильмы 2018 [DVDrip, WEB-DLRip, HDrip] (DUB, MVO) [ 1.45 GB ] Добро пожаловать незнакомец / Welcome the Stranger [2018 WEB-DLRip] MVO bober100 Скачать
1 | 0
Фильмы (WEB-DL 720p, 1080p) [ 3.52 GB ] Добро пожаловать незнакомец / Welcome the Stranger [2018 WEB-DL 1080p] MVO bober100 Скачать
1 | 0

28-11-2019 20:33  

Отключить всю рекламу на сайте

    Дорогой пользователь! Огромная просьба, поблагодарите релизера, оцените раздачу и оставьте свои комментарий, если Вы скачали Добро пожаловать, незнакомец через торрент бесплатно! Внесите свою лепту в развитие PiratBit!
    Комментировать посты могут только пользователи прошедшие не сложную регистрацию
    Показать сообщения:    

    Добро пожаловать, незнакомец через торрент
    Скачать бесплатно Добро пожаловать, незнакомец
    Добро пожаловать, незнакомец скачать торрент
    Добро пожаловать, незнакомец смотреть онлайн
    Cкачать фильм Добро пожаловать, незнакомец бесплатно
    Добро пожаловать, незнакомец скачать торрент в хорошем качестве
    Добро пожаловать, незнакомец смотреть онлайн бесплатно в хорошем качестве


    Вы не можете начинать темы
    Вы не можете отвечать на сообщения
    Вы не можете редактировать свои сообщения
    Вы не можете удалять свои сообщения
    Вы не можете голосовать в опросах
    Вы не можете прикреплять файлы к сообщениям
    Вы можете скачивать файлы