2 сезон

iTunes

MVO

1

2 сезон

iTunes

iTunes

1 сезон

RePack

30

Новинка

ВАЖНО

ИГРА 18+

pack

RePack

MK11
pack

Легкие деньги

RePack

jed

RePack

fifa19

RePack

RDR2

RePack

NEED FOR SPEED™ PAYBACK

4 сезон

9 сезон

Бесстыжие 9 сезон

Все сериалы

все сериалы на PB.wtf

RePack

FAR CRY 5

Anonymous, доброй ночи, мы не успеваем собрать деньги на оплату серверов за декабрь и январь, помогите нам пожалуйста в это трудное время. В качестве благодарности мы отключим Вам всю рекламу на сайте (укажите свой ник в строку Ваше имя)!

×
  
Magnet ссылка

Убить Гюнтера / Killing Gunther (Таран Киллэм) [2017, Боевик, комедия, BDRip-AVC] MVO [Лицензия / iTunes] pb.wtf

Убить Гюнтера через торрент pb.wtf

Размер: 2.22 GB | Добавлен: 2 года 10 мес. назад | Торрент скачан:475 раз
Скачать  

20-03-2018 12:04 Убить Гюнтера Скачать торрент  

Убить Гюнтера / Killing Gunther
Год выпуска: 2017
Страна: США
Жанр: Боевик, комедия
Продолжительность: AC3, 6 ch, 384 kbps
Перевод: Профессиональный многоголосый | Лицензия / iTunes
Субтитры: Английские

Режиссер: Таран Киллэм

rating

В ролях:


Таран Киллэм, Ханна Саймон (Sanaa), Бобби Мойнахан (Donnie), Пол Бриттейн (Gabe), Арнольд Шварценеггер, Питер Келамис (Rahmat), Аарон Ю (Yong), Коби Смолдерс (Lisa McCalla), Эллисон Толман (Mia), Стив Бачич (Max), Скотт МакНил (Cheyenne), Амир Талай (Izzat)
Описание:

В мире профессиональных убийц существует свой рейтинг, и на его вершине находится некто Гюнтер. Никто не знает, как он выглядит, и где его найти, но совершенно точно известно, что с ним лучше не связываться. Киллер Блейк решает поправить иерархию и любой ценой уничтожить легендарного Гюнтера, для чего собирает команду наёмников со всего света — хакера, взрывника, дочь террориста, безбашенных близнецов из России, китайского специалиста по ядам и даже убийцу с бионической рукой.

Качество: BDRip-AVC
Формат: MKV

Видео: 1024x552 (1.85:1), 23,976 fps, x264 ~2 570 kbps avg, 0.190 bit/pixel
Аудио#1: 48 kHz, AC3 Dolby Digital, 3/2 (L,C,R,l,r) + LFE ch, ~384.00 kbps avg | RUS (iTunes)
Аудио#2: 48 kHz, AC3 Dolby Digital, 3/2 (L,C,R,l,r) + LFE ch, ~448.00 kbps avg | ENG
скриншот   скриншот   скриншот   скриншот   скриншот   скриншот  

Общее
Уникальный идентификатор : 238022984894281349650113846269112509963 (0xB3118F353BD7B333949337258A7C660B)
Полное имя : E:OlLanDGroupKilling.Gunther.2017.BDRip(AVC).OlLanDGroup.mkv
Формат : Matroska
Версия формата : Version 2
Размер файла : 2,22 Гбайт
Продолжительность : 1 ч. 33 м.
Общий поток : 3405 Кбит/сек
Название фильма : Killing.Gunther.2017 #TorpedoUK#
Дата кодирования : UTC 2018-03-20 11:34:46
Программа кодирования : mkvmerge v7.8.0 ('River Man') 32bit built on Apr 3 2015 12:11:22
Библиотека кодирования : libebml v1.3.1 + libmatroska v1.4.2
Обложка : Yes
Attachments : small_cover.jpg / small_cover_land.jpg / cover.jpg / cover_land.jpg

Видео
Идентификатор : 1
Формат : AVC
Формат/Информация : Advanced Video Codec
Профиль формата : High@L4.1
Параметр CABAC формата : Да
Параметр ReFrames формата : 10 кадров
Идентификатор кодека : V_MPEG4/ISO/AVC
Продолжительность : 1 ч. 33 м.
Битрейт : 2570 Кбит/сек
Ширина : 1024 пикселя
Высота : 552 пикселя
Соотношение сторон : 1,85:1
Режим частоты кадров : Постоянный
Частота кадров : 23,976 (24000/1001) кадра/сек
Цветовое пространство : YUV
Субдискретизация насыщенности : 4:2:0
Битовая глубина : 8 бит
Тип развёртки : Прогрессивная
Бит/(Пиксели*Кадры) : 0.190
Размер потока : 1,64 Гбайт (74%)
Библиотека кодирования : x264 core 146 r2538 121396c
Настройки программы : cabac=1 / ref=10 / deblock=1:-2:-3 / analyse=0x3:0x133 / me=umh / subme=11 / psy=1 / psy_rd=0.97:0.07 / mixed_ref=1 / me_range=48 / chroma_me=1 / trellis=2 / 8x8dct=1 / cqm=0 / deadzone=21,11 / fast_pskip=1 / chroma_qp_offset=-3 / threads=6 / lookahead_threads=1 / sliced_threads=0 / nr=0 / decimate=1 / interlaced=0 / bluray_compat=0 / constrained_intra=0 / bframes=10 / b_pyramid=2 / b_adapt=2 / b_bias=0 / direct=3 / weightb=1 / open_gop=0 / weightp=2 / keyint=240 / keyint_min=23 / scenecut=40 / intra_refresh=0 / rc_lookahead=40 / rc=2pass / mbtree=0 / bitrate=2570 / ratetol=1.0 / qcomp=0.60 / qpmin=0 / qpmax=69 / qpstep=4 / cplxblur=20.0 / qblur=0.5 / vbv_maxrate=50000 / vbv_bufsize=62500 / nal_hrd=none / filler=0 / ip_ratio=1.40 / pb_ratio=1.30 / aq=1:1.00
Язык : English
Default : Да
Forced : Нет

Аудио #1
Идентификатор : 2
Формат : AC-3
Формат/Информация : Audio Coding 3
Расширение режима : CM (complete main)
Параметр Endianness формата : Big
Идентификатор кодека : A_AC3
Продолжительность : 1 ч. 33 м.
Вид битрейта : Постоянный
Битрейт : 384 Кбит/сек
Каналы : 6 каналов
Расположение каналов : Front: L C R, Side: L R, LFE
Частота : 48,0 КГц
Частота кадров : 31,250 кадров/сек (1536 spf)
Битовая глубина : 16 бит
Метод сжатия : С потерями
Размер потока : 257 Мбайт (11%)
Заголовок : iTunes
Язык : Russian
Default : Да
Forced : Нет

Аудио #2
Идентификатор : 3
Формат : AC-3
Формат/Информация : Audio Coding 3
Расширение режима : CM (complete main)
Параметр Endianness формата : Big
Идентификатор кодека : A_AC3
Продолжительность : 1 ч. 33 м.
Вид битрейта : Постоянный
Битрейт : 448 Кбит/сек
Каналы : 6 каналов
Расположение каналов : Front: L C R, Side: L R, LFE
Частота : 48,0 КГц
Частота кадров : 31,250 кадров/сек (1536 spf)
Битовая глубина : 16 бит
Метод сжатия : С потерями
Размер потока : 299 Мбайт (13%)
Заголовок : Original
Язык : English
Default : Нет
Forced : Нет

Текст #1
Идентификатор : 4
Формат : UTF-8
Идентификатор кодека : S_TEXT/UTF8
Идентификатор кодека/Информация : UTF-8 Plain Text
Заголовок : Full
Язык : English
Default : Нет
Forced : Нет

Текст #2
Идентификатор : 5
Формат : UTF-8
Идентификатор кодека : S_TEXT/UTF8
Идентификатор кодека/Информация : UTF-8 Plain Text
Заголовок : SDH
Язык : English
Default : Нет
Forced : Нет

Меню
00:00:00.000 : en:Chapter 01
00:04:27.100 : en:Chapter 02
00:12:31.542 : en:Chapter 03
00:18:44.790 : en:Chapter 04
00:22:38.940 : en:Chapter 05
00:29:06.244 : en:Chapter 06
00:35:20.493 : en:Chapter 07
00:42:26.919 : en:Chapter 08
00:47:09.076 : en:Chapter 09
00:53:08.977 : en:Chapter 10
00:59:04.499 : en:Chapter 11
01:04:01.921 : en:Chapter 12
01:09:52.813 : en:Chapter 13
01:19:03.321 : en:Chapter 14
01:21:47.903 : en:Chapter 15
01:28:13.162 : en:Chapter 16

pb.wtf



Скачать Убить Гюнтера через торрент http://lostpix.com/img/2018-03/20/d6a38m2mpspwg8w7ohpsi0adr.png Скачать фильм Убить Гюнтера через торрент бесплантно в хорошем качестве Описание: В мире профессиональных убийц существует свой рейтинг, и на его вершине находится некто Гюнтер. Никто не знает, как он выглядит, ... 8.7 10 14
Торрент: Зарегистрирован [2018-03-20 12:04] · скачан: 475 раз
Статус: √ проверено
Размер: 2.22 GB
Как cкачать? Как скачать Убить Гюнтера через торрент | UTorrent

% Раздел Тема Автор DL S | L
Фильмы [HD 720p, 1080p] (Хороший звук DUB, MVO) [ 5.61 GB ] Убить Гюнтера / Killing Gunther [2017 BDRip-HEVC 1080p ] MVO bober100 Скачать
1 | 0
Фильмы 2017 [DVDrip, WEB-DLRip, HDrip] (DUB, MVO) [ 1.46 GB ] Убить Гюнтера / Killing Gunther [2017 BDRip] [MVO] killermax2013 Скачать
1 | 0
T Релизы по Парсеру [Игры, Сериалы и Фильмы и другое...] [ 4.75 GB ] Убить Гюнтера / Killing Gunther [2017 BDRip 720p] MVO schultz Скачать
1 | 0
Фильмы (Blu-ray, BD-Remux, HDDVD) [ 16.89 GB ] Убить Гюнтера / Killing Gunther [2017 BD Remux 1080р] 2xMVO [MUZOBOZ] bober100 Скачать
1 | 0
Фильмы 2017 [DVDrip, WEB-DLRip, HDrip] (DUB, MVO) [ 1.42 GB ] Убить Гюнтера / Killing Gunther [2017 BDRip] MVO Twi7ter Скачать
1 | 0
Фильмы [HD 720p, 1080p] (Хороший звук DUB, MVO) [ 9.07 GB ] Убить Гюнтера / Killing Gunther [2017 BDRip 1080p] MVO bober100 Скачать
1 | 0
Фильмы [HD 720p, 1080p] (Хороший звук DUB, MVO) [ 5.17 GB ] Убить Гюнтера / Killing Gunther [2017 BDRip 720p] MVO bober100 Скачать
1 | 0

28-11-2019 20:33  

Отключить всю рекламу на сайте

17-04-2018 21:41 Убить Гюнтера Скачать торрент  

унылый фильм! Просто тупой отстой!pb.wtf



23-04-2018 13:29 Убить Гюнтера Скачать торрент  

Унылое гуано!pb.wtf



    Дорогой пользователь! Огромная просьба, поблагодарите релизера, оцените раздачу и оставьте свои комментарий, если Вы скачали Убить Гюнтера через торрент бесплатно! Внесите свою лепту в развитие PiratBit!
    Комментировать посты могут только пользователи прошедшие не сложную регистрацию
    Показать сообщения:    

    Убить Гюнтера через торрент
    Скачать бесплатно Убить Гюнтера
    Убить Гюнтера скачать торрент
    Убить Гюнтера смотреть онлайн
    Cкачать фильм Убить Гюнтера бесплатно
    Убить Гюнтера скачать торрент в хорошем качестве
    Убить Гюнтера смотреть онлайн бесплатно в хорошем качестве


    Вы не можете начинать темы
    Вы не можете отвечать на сообщения
    Вы не можете редактировать свои сообщения
    Вы не можете удалять свои сообщения
    Вы не можете голосовать в опросах
    Вы не можете прикреплять файлы к сообщениям
    Вы можете скачивать файлы