новый адрес пиратбит piratbit
Мега распродажа FORZA HORIZON 4 ULTIMATE+ВСЕ DLC+ОНЛАЙН всего за 499р. 349 руб. (супер цена). Внимание количество ограничено!!!

iTunes

1+1

iTunes

мы

iTunes

1

iTunes

Чернобыль

iTunes

Ральф против интернета

Лицензия

ПШазам

Лицензия

Игра престолов

Лицензия

30
pack

ВАЖНО

!!Акция!!

Alien_RageХит недели

RePack

Resident Evil 21

ИГРА 18+

pack

RePack

Metro:Exodus

!!Акция!!

Alien_Rage

RePack

fifa19

RePack

Assassins Creed: Odyssey

RePack

NEED FOR SPEED™ PAYBACK

3 сезон

9 сезон

Бесстыжие 9 сезон

Все сериалы

все сериалы на PB.wtf

RePack

FAR CRY 5
Ребята, катастрофически не хватает 1900р. для оплаты серверов за Октябрь (всвязи с блокировками трафик упал в 3 раза), 1-2р., выручайте.
  

Сережа (Георгий Данелия, Игорь Таланкин) [1960, СССР, драма, DVDRip от AVP Studio] pb.wtf

Сережа через торрент pb.wtf

Размер: 746 MB | Добавлен: 1 год 7 мес. назад | Торрент скачан:31 раз
Скачать  

20-03-2018 13:43 Сережа Скачать торрент  

Сережа
Страна: СССР
Производство: Мосфильм

Жанр: драма
Год выпуска: 1960
Продолжительность: 01:15:37

Перевод: Не требуется
Cубтитры: нет
Оригинальная аудиодорожка: русский

Режиссер: Георгий Данелия, Игорь Таланкин

В ролях:
Борис Бархатов, Сергей Бондарчук, Ирина Скобцева, Сережа Метелицын, Юра Козлов (II), Любовь Соколова, Василий Меркурьев, Александра Панова, Николай Сергеев, Кларина Фролова-Воронцова, Алёша Доценко, Наташа Чечёткина...
Об актёрах подробней

Описание:
Экранизация одноименной повести Веры Пановой.
В дом пятилетнего Серёжи пришёл новый папа - Коростылёв (Сергей Бондарчук), человек серьёзный, ласковый, умный. Теперь Серёжа стал обладателем велосипеда, предмета зависти всех мальчишек. А потом появился маленький Лёнька, Серёжин братишка. Целыми днями мама (Ирина Скобцева) занималась с Лёнькой, и впервые Серёжа почувствовал себя одиноким, заброшенным.

Источник: DVD5 R5
Качество видео: DVDRip
Формат видео: AVI

Видео: 640x464 (1,379:1), 25,000 кадров/сек, XviD ~ 1241 kbps avg, 0.167 bit/pixel
Аудио: 48 kHz, MP3 2.0, 128 kbps

Раздача от:
Общее
Полное имя : Seryozha.1960.DVDRip-745_[New-team]_by_AVP_Studio.avi
Формат : AVI
Формат/Информация : Audio Video Interleave
Размер файла : 746 Мбайт
Продолжительность : 1 ч. 15 м.
Общий поток : 1379 Кбит/сек
Программа кодирования : VirtualDubMod 1.5.10.3 | www.virtualdub-fr.org || (build 2550/release)
Библиотека кодирования : VirtualDubMod build 2550/release

Видео
Идентификатор : 0
Формат : MPEG-4 Visual
Профиль формата : Advanced Simple@L5
Настройки формата : BVOP1 / Custom Matrix
Параметр BVOP формата : 1
Параметр QPel формата : Нет
Параметр GMC формата : Без точки перехода
Параметр матрицы формата : Выборочная
Идентификатор кодека : XVID
Идентификатор кодека/Подсказка : XviD
Продолжительность : 1 ч. 15 м.
Битрейт : 1241 Кбит/сек
Ширина : 640 пикселей
Высота : 464 пикселя
Соотношение сторон : 1,379
Частота кадров : 25,000 кадров/сек
Цветовое пространство : YUV
Субдискретизация насыщенности : 4:2:0
Битовая глубина : 8 бит
Тип развёртки : Прогрессивная
Метод сжатия : С потерями
Бит/(Пиксели*Кадры) : 0.167
Размер потока : 671 Мбайт (90%)
Библиотека кодирования : XviD 73

Аудио
Идентификатор : 1
Формат : MPEG Audio
Версия формата : Version 1
Профиль формата : Layer 3
Идентификатор кодека : 55
Идентификатор кодека/Подсказка : MP3
Продолжительность : 1 ч. 15 м.
Вид битрейта : Постоянный
Битрейт : 128 Кбит/сек
Каналы : 2 канала
Частота : 48,0 КГц
Частота кадров : 41,667 кадра/сек (1152 SPF)
Метод сжатия : С потерями
Размер потока : 69,2 Мбайт (9%)
Выравнивание : Соединение по промежуткам
Продолжительность промежутка : 40 мс. (1,00 видеокадр)
Время предзагрузки промежутка : 504 мс.
Библиотека кодирования : LAME3.99r
Настройки программы : -m s -V 4 -q 2 -lowpass 17 -b 128
pb.wtf



Скачать Сережа через торрент http://picplus.ru/img/1803/20/5c1d38de.png Скачать фильм Сережа через торрент бесплантно в хорошем качестве Описание:Экранизация одноименной повести Веры Пановой.В дом пятилетнего Серёжи пришёл новый папа - Коростылёв (Сергей Бондарчук), человек ... 10 10 2
Торрент: Зарегистрирован [2018-03-20 13:43] · скачан: 31 раз
Статус: √ проверено
Размер: 746 MB
Как cкачать? Как скачать Сережа через торрент | qTorrent

% Раздел Тема Автор DL S | L
Кино СССР [ 1.09 GB ] Сережа [1960 СССР DVDRip-AVC от AVP Studio] AVP Studio Скачать
1 | 0
Кино СССР [ 1.09 GB ] Сережа [1960 СССР DVDRip от AVP Studio] AVP Studio Скачать
1 | 0
Русское любительское видео [ 192 MB ] Сережа! Ну хватит пожалуйста! [2016 Amateur Home Anal CamRip] Pir@tya2010 Скачать
1 | 0
Отечественный шансон [ 109 MB ] Серёжа Антикалист: Перестройка Гласность Плюрализм / MP3 / 179-320 kbps / Шансон кэп Скачать
1 | 0


>> Регистрируемся здесь <<






Отзывы и комментарии о схеме читаем и пишем здесь: ---> Отзывы и комментарии о схеме

Новые благодарочки в телеграм довольных пользователей:
скриншот   скриншот   скриншот   скриншот   скриншот
    Дорогой пользователь! Огромная просьба, поблагодарите релизера, оцените раздачу и оставьте свои комментарий, если Вы скачали Сережа через торрент бесплатно! Внесите свою лепту в развитие PiratBit!
    Комментировать посты могут только пользователи прошедшие не сложную регистрацию
    Показать сообщения:    

    Сережа через торрент
    Скачать бесплатно Сережа
    Сережа скачать торрент
    Сережа смотреть онлайн
    Cкачать фильм Сережа бесплатно
    Сережа скачать торрент в хорошем качестве
    Сережа смотреть онлайн бесплатно в хорошем качестве


    Вы не можете начинать темы
    Вы не можете отвечать на сообщения
    Вы не можете редактировать свои сообщения
    Вы не можете удалять свои сообщения
    Вы не можете голосовать в опросах
    Вы не можете прикреплять файлы к сообщениям
    Вы можете скачивать файлы