Ссылка на приватное зеркало нашего сайта всего за 1$. Внимание количество ограничено!!!

2 сезон

iTunes

1 сезон

1

2 сезон

2 сезон

iTunes

1 сезон

RePack

30

Ultimate

ВАЖНО

ИГРА 18+

pack

RePack

MK11
pack

Забери бонус

RePack

jed

!!Акция!!

Alien_Rage

RePack

fifa19

RePack

Assassins Creed: Odyssey

RePack

NEED FOR SPEED™ PAYBACK

4 сезон

9 сезон

Бесстыжие 9 сезон

Все сериалы

все сериалы на PB.wtf

RePack

FAR CRY 5
  

Переправа / The Crossing / Сезон: 1 / Серия 1-8 из 11 (Роб Боумен, Кен Джиротти, Джеффри Дж. Хант) [2018, США, Фантастика, драма, приключения, WEBRip] MVO [BaibaKo] pb.wtf

Переправа через торрент pb.wtf

Размер: 3.93 GB | Добавлен: 2 года 5 мес. назад | Торрент скачан:48 раз
Скачать  

21-03-2018 01:18 Переправа Скачать торрент  


Переправа / The Crossing



  • Год выпуска: 2018
  • Страна: США
  • Жанр: Фантастика, драма, приключения
  • Продолжительность: 00:42:00 (Серия)
  • Перевод: Профессиональный многоголосый [BaibaKo]
  • Режиссер: Роб Боумен, Кен Джиротти, Джеффри Дж. Хант
  • В ролях:
    Рик Гомес, Грант Уитни Харви, Келли Миссал, Симона Кэссел, Люк Камиллери, Стив Зан, Кристиан Майкл Купер, Райан МакДонелл, Сандрин Холт, Барбара Ив Харрис



  • Волны выбрасывают на промозглый орегонский пляж тела непонятно откуда взявшихся беженцев. Все они прибыли из будущего, в котором сейчас вовсю разворачивается очередная мировая война. В том, чем грозит нашествие, пытается разобраться местный шериф
  • Рейтинг:

    rating
  • Качество: WEBRip
  • Формат: AVI
  • Видео кодек: XviD
  • Аудио кодек: MP3
  • Видео: 1447 Кбит/сек, 720*400 (16:9), в 23,976 (24000/1001) кадра/сек, MPEG-4 Visual (XviD)
  • Аудио: русский 192 Кбит/сек, 48,0 КГц, 2 канала, MPEG Audio (MP3) |[BaibaKo]|
  • Релиз от: GEKADOL

    Внимание! Раздача ведётся путём добавления новых серий; при каждом добавлении создаётся новый торрент. Чтобы начать докачку новой серии, пользователям необходимо сделать следующее:
    (1) остановить скачивание,
    (2) удалить старый торрент у себя из клиента (старые серии удалять не надо),
    (3) скачать новый торрент и запустить его у себя в клиенте вместо старого, при этом указать клиенту путь в старую папку куда и должно происходить скачивание новых серий.
    Ваш клиент при этом должен произвести хеширование (проверку) старой папки (если не производит сам - помогите ему сделать это), и будет докачивать только те серии которых у вас ещё нет. Старые серии при этом не удаляются, а продолжают раздаваться!
    Eсли вы уже удалили старые серии, то предотвратить повторную закачку старых серий можно, отжав галочку в соответствующих местах при запуске нового торрента. По возможности, желательно не удалять старые серии как можно дольше чтобы релизёр не столько продолжал раздавать старые серии, а смог сконцентрироваться на новых.
    Общее
    Полное имя : F:\Переправа (The Crossing)\The.Crossing.s01e01.WEBRip.x264.Rus.BaibaKo.avi
    Формат : AVI
    Формат/Информация : Audio Video Interleave
    Размер файла : 497 Мбайт
    Продолжительность : 42 м. 6 с.
    Общий поток : 1649 Кбит/сек

    Видео
    Идентификатор : 0
    Формат : MPEG-4 Visual
    Профиль формата : Advanced Simple@L5
    Настройки формата : BVOP2
    Параметр BVOP формата : 2
    Параметр QPel формата : Нет
    Параметр GMC формата : Без точки перехода
    Параметр матрицы формата : Default (H.263)
    Идентификатор кодека : XVID
    Идентификатор кодека/Подсказка : XviD
    Продолжительность : 42 м. 6 с.
    Битрейт : 1447 Кбит/сек
    Ширина : 720 пикселей
    Высота : 400 пикселей
    Соотношение сторон : 16:9
    Частота кадров : 23,976 (24000/1001) кадра/сек
    Цветовое пространство : YUV
    Субдискретизация насыщенности : 4:2:0
    Битовая глубина : 8 бит
    Тип развёртки : Прогрессивная
    Метод сжатия : С потерями
    Бит/(Пиксели*Кадры) : 0.210
    Размер потока : 436 Мбайт (88%)
    Библиотека кодирования : XviD 67

    Аудио
    Идентификатор : 1
    Формат : MPEG Audio
    Версия формата : Version 1
    Профиль формата : Layer 3
    Настройки формата : Joint stereo
    Идентификатор кодека : 55
    Идентификатор кодека/Подсказка : MP3
    Продолжительность : 42 м. 6 с.
    Вид битрейта : Постоянный
    Битрейт : 192 Кбит/сек
    Каналы : 2 канала
    Частота : 48,0 КГц
    Метод сжатия : С потерями
    Задержка видео : 24 мс.
    Размер потока : 57,8 Мбайт (12%)
    Выравнивание : Разделение по промежуткам
    Продолжительность промежутка : 42 мс. (1,00 видеокадр)
    Время предзагрузки промежутка : 500 мс.
    Библиотека кодирования : LAME3.100UЂ



    Скриншоты:
    скриншот   скриншот   скриншот   скриншот   скриншот   скриншот   скриншот  
    скриншот  

    Раздача ведётся путём добавления новых серий. Добавлена 6-8 серия (31.05.2018).Просьба перекачать торрент файл.

    pb.wtf



  • Скачать Переправа через торрент http://pic1.kartinco.top/images/11/ti6a6.jpg Скачать фильм Переправа через торрент бесплантно в хорошем качестве qw.png Волны выбрасывают на промозглый орегонский пляж тела непонятно откуда взявшихся беженцев. Все они прибыли из будущего, в котором ... 9.4 10 13
    Info! Серебряная раздача, засчитывается только 50% скачанного.
    Торрент: Зарегистрирован [2018-05-31 12:10] · скачан: 48 раз
    Статус: √ проверено
    Размер: 3.93 GB
    Как cкачать? Как скачать Переправа через торрент | qTorrent



    Последний раз редактировалось: GEKADOL (2018-05-31 12:10), всего редактировалось 6 раз(а)

    28-11-2019 20:33  

    Отключить всю рекламу на сайте

    21-03-2018 04:44 Переправа Скачать торрент  

    ниче так трейлер. так и напрашивается аналогия с беженцами в европе. кстати, походу пилотная серия тоже прибыла из будущего - премьера на апрель назначена pb.wtf



    21-03-2018 04:52 Переправа Скачать торрент  

    tamburetko писал(а):

    ниче так трейлер. так и напрашивается аналогия с беженцами в европе. кстати, походу пилотная серия тоже прибыла из будущего - премьера на апрель назначена

    pb.wtf



    11-04-2018 04:08 Переправа Скачать торрент  

    Первая серия понравилась, вторую ждал две недели, думал закрыли сериал !
    Однополых браков, зашкаливание негров и всякой другой гадости незамеченно !!
    Будем посмотреть, помогу с раздачей !
    GEKADOL, Спасибо !!! pb.wtf



    11-04-2018 04:36 Переправа Скачать торрент  

    НиколайНиколаевич писал(а):

    Первая серия понравилась, вторую ждал две недели, думал закрыли сериал !
    Однополых браков, зашкаливание негров и всякой другой гадости незамеченно !!
    Будем посмотреть, помогу с раздачей !
    GEKADOL, Спасибо !!!

    pb.wtf



    03-06-2018 05:16 Переправа Скачать торрент  

    через жопу снятый сериал особенно понравилось у бабы ранение то на правом плече затем в следующей серии на левом затем опять на правом потом на левом pb.wtf



    12-07-2018 14:44 Переправа Скачать торрент  

    Чёт заглохло всё,уже забыл что в первой серии было...pb.wtf



      Дорогой пользователь! Огромная просьба, поблагодарите релизера, оцените раздачу и оставьте свои комментарий, если Вы скачали Переправа через торрент бесплатно! Внесите свою лепту в развитие PiratBit!
      Комментировать посты могут только пользователи прошедшие не сложную регистрацию
      Показать сообщения:    

      Переправа через торрент
      Скачать бесплатно Переправа
      Переправа скачать торрент
      Переправа смотреть онлайн
      Cкачать фильм Переправа бесплатно
      Переправа скачать торрент в хорошем качестве
      Переправа смотреть онлайн бесплатно в хорошем качестве


      Вы не можете начинать темы
      Вы не можете отвечать на сообщения
      Вы не можете редактировать свои сообщения
      Вы не можете удалять свои сообщения
      Вы не можете голосовать в опросах
      Вы не можете прикреплять файлы к сообщениям
      Вы можете скачивать файлы