2 сезон

iTunes

MVO

1

2 сезон

iTunes

iTunes

1 сезон

RePack

30

Ultimate

ВАЖНО

ИГРА 18+

pack

RePack

MK11
pack

Легкие деньги

RePack

jed

RePack

fifa19

RePack

RDR2

RePack

NEED FOR SPEED™ PAYBACK

4 сезон

9 сезон

Бесстыжие 9 сезон

Все сериалы

все сериалы на PB.wtf

RePack

FAR CRY 5

Anonymous, добрый день, мы не успеваем собрать деньги на оплату серверов за декабрь и январь, помогите нам пожалуйста в это трудное время. В качестве благодарности мы отключим Вам всю рекламу на сайте (укажите свой ник в строку Ваше имя)!

×
  
Magnet ссылка

Столкновение (Режиссёрская версия) / Crash (Director's Cut) / 2004 (Пол Хаггис) [2004, триллер, драма, криминал, BDRip 720p by msltel] DUB, 2 x DVO, 2 x AVO pb.wtf

Столкновение через торрент pb.wtf

Размер: 5.9 GB | Добавлен: 2 года 9 мес. назад | Торрент скачан:98 раз
Скачать  

21-03-2018 05:59 Столкновение Скачать торрент  

Название: Столкновение
Оригинальное название: Crash
Год выпуска: 2004
Страна: Германия, США
Жанр: триллер, драма, криминал
Продолжительность: 01:55:00
Перевод: дублированный, профессиональный двухголосый, авторский

Режиссер: Пол Хаггис
В ролях: Дон Чидл, Мэтт Диллон, Райан Филипп, Терренс Ховард, Сандра Баллок, Тэнди Ньютон, Брендан Фрейзер, Майкл Пенья, Шон Тоуб, Лудакрис, Бахар Сумех, Дженнифер Эспозито, Кит Дэвид, Уильям Фихтнер, Лоренц Тейт, Кен Гарито, Джек МакГи, Грег Йюнг Пайк, Алексис Ри, Эшлин Санчез, Билли Галло, Карина Арройяве, Беверли Тодд, Дато Бахтадзе, Арт Чудабала, Шон Кори, Тони Данца, Лоретта Дивайн, Име Етук, Эдди Дж. Фернандез, Ховард Фонг, Нона Гэй, Октавио Гомез, Джеймс Хаггис, Силва Келегиан, Дэниэл Дэ Ким, Брюс Кёрби, Джейден Ланд, Аманда Мореско

О фильме: Закон и преступление, порядок и беспредел, защитник и жертва — неизбежное противостояние и столкновение. Полицейские — порядок; законопослушные граждане — закон. Но все ли граждане, слывущие добропорядочными, соблюдают законы, и всем ли представителям закона стоит доверять? Прикрываясь значком полицейского, они вершат беззаконие и из праведников превращаются в изощренных насильников...



Качество: BDRip 720p
Формат: MKV
Видео: MPEG-4 AVC, 4718 Kбит/с, 1280x542
Аудио 1: русский, AC3, 384 kbps, 6 ch, 48 kHz [дублированный, R5, Мосфильм-мастер, перевод Гланца на расширенные эпизоды]
Аудио 2: русский, AC3, 448 kbps, 6 ch, 48 kHz [закадровыйдвухголосый, Пётр Гланц и Татьяна Казакова]
Аудио 3: русский, AC3, 448 kbps, 6 ch, 48 kHz [закадровый двухголосый, Tycoon, перевод Гланца на расширенные эпизоды]
Аудио 4: русский, AC3, 448 kbps, 7/6 ch, 48 kHz [авторский, Андрей Гаврилов]
Аудио 5: русский, AC3, 448 kbps, 6 ch, 48 kHz [авторский, Антон Киреев]
Аудио 6: английский, AC3, 448 kbps, 6 ch, 48 kHz [оригинал]
Субтитры 1: русские
Субтитры 2: английские
Главы/чаптеры
Общее
Уникальный идентификатор : 232221993951671573882300238416855600174 (0xAEB45445C66D2E26926430F8F2428C2E)
Полное имя : D:\Video\Столкновение.2004.DirCut.BDRip.720p by msltel.mkv
Формат : Matroska
Версия формата : Version 4 / Version 2
Размер файла : 5,90 Гбайт
Продолжительность : 1 ч. 55 м.
Общий поток : 7345 Кбит/сек
Название фильма : Rip by msltel
Дата кодирования : UTC 2018-03-21 02:24:40
Программа кодирования : mkvmerge v8.2.0 ('World of Adventure') 64bit
Библиотека кодирования : libebml v1.3.1 + libmatroska v1.4.2

Видео
Идентификатор : 1
Формат : AVC
Формат/Информация : Advanced Video Codec
Профиль формата : High@L4.1
Настройки формата : CABAC / 9 Ref Frames
Параметр CABAC формата : Да
Параметр RefFrames формата : 9 кадров
Идентификатор кодека : V_MPEG4/ISO/AVC
Продолжительность : 1 ч. 55 м.
Битрейт : 4718 Кбит/сек
Ширина : 1280 пикселей
Высота : 542 пикселя
Соотношение сторон : 2,35:1
Режим частоты кадров : Постоянный
Частота кадров : 23,976 (24000/1001) кадра/сек
Цветовое пространство : YUV
Субдискретизация насыщенности : 4:2:0
Битовая глубина : 8 бит
Тип развёртки : Прогрессивная
Бит/(Пиксели*Кадры) : 0.284
Размер потока : 3,79 Гбайт (64%)
Библиотека кодирования : x264 core 146 r2538 121396c
Настройки программы : cabac=1 / ref=9 / deblock=1:-3:-2 / analyse=0x3:0x113 / me=umh / subme=11 / psy=1 / psy_rd=1.00:0.15 / mixed_ref=1 / me_range=32 / chroma_me=1 / trellis=2 / 8x8dct=1 / cqm=0 / deadzone=21,11 / fast_pskip=0 / chroma_qp_offset=-3 / threads=6 / lookahead_threads=1 / sliced_threads=0 / nr=0 / decimate=1 / interlaced=0 / bluray_compat=0 / constrained_intra=0 / bframes=12 / b_pyramid=2 / b_adapt=2 / b_bias=0 / direct=1 / weightb=1 / open_gop=0 / weightp=2 / keyint=230 / keyint_min=23 / scenecut=40 / intra_refresh=0 / rc_lookahead=40 / rc=crf / mbtree=0 / crf=20.0 / qcomp=0.60 / qpmin=0 / qpmax=69 / qpstep=4 / vbv_maxrate=62500 / vbv_bufsize=78125 / crf_max=0.0 / nal_hrd=none / filler=0 / ip_ratio=1.40 / pb_ratio=1.30 / aq=1:1.00
Язык : English
Default : Да
Forced : Нет

Аудио #1
Идентификатор : 2
Формат : AC-3
Формат/Информация : Audio Coding 3
Идентификатор кодека : A_AC3
Продолжительность : 1 ч. 55 м.
Вид битрейта : Постоянный
Битрейт : 384 Кбит/сек
Каналы : 6 каналов
Расположение каналов : Front: L C R, Side: L R, LFE
Частота : 48,0 КГц
Частота кадров : 31,250 кадров/сек (1536 SPF)
Битовая глубина : 16 бит
Метод сжатия : С потерями
Размер потока : 316 Мбайт (5%)
Заголовок : DUB+DVO
Язык : Russian
ServiceKind/String : Complete Main
Default : Да
Forced : Нет

Аудио #2
Идентификатор : 3
Формат : AC-3
Формат/Информация : Audio Coding 3
Идентификатор кодека : A_AC3
Продолжительность : 1 ч. 55 м.
Вид битрейта : Постоянный
Битрейт : 448 Кбит/сек
Каналы : 6 каналов
Расположение каналов : Front: L C R, Side: L R, LFE
Частота : 48,0 КГц
Частота кадров : 31,250 кадров/сек (1536 SPF)
Битовая глубина : 16 бит
Метод сжатия : С потерями
Размер потока : 369 Мбайт (6%)
Заголовок : DVO Пётр Гланц и Татьяна Казакова
Язык : Russian
ServiceKind/String : Complete Main
Default : Нет
Forced : Нет

Аудио #3
Идентификатор : 4
Формат : AC-3
Формат/Информация : Audio Coding 3
Идентификатор кодека : A_AC3
Продолжительность : 1 ч. 55 м.
Вид битрейта : Постоянный
Битрейт : 448 Кбит/сек
Каналы : 6 каналов
Расположение каналов : Front: L C R, Side: L R, LFE
Частота : 48,0 КГц
Частота кадров : 31,250 кадров/сек (1536 SPF)
Битовая глубина : 16 бит
Метод сжатия : С потерями
Размер потока : 369 Мбайт (6%)
Заголовок : DVO Tycoon
Язык : Russian
ServiceKind/String : Complete Main
Default : Нет
Forced : Нет

Аудио #4
Идентификатор : 5
Формат : AC-3
Формат/Информация : Audio Coding 3
Идентификатор кодека : A_AC3
Продолжительность : 1 ч. 55 м.
Вид битрейта : Постоянный
Битрейт : 448 Кбит/сек
Каналы : 6 каналов
Расположение каналов : Front: L C R, Side: L R, LFE
Частота : 48,0 КГц
Частота кадров : 31,250 кадров/сек (1536 SPF)
Битовая глубина : 16 бит
Метод сжатия : С потерями
Размер потока : 369 Мбайт (6%)
Заголовок : Андрей Гаврилов
Язык : Russian
ServiceKind/String : Complete Main
Default : Нет
Forced : Нет

Аудио #5
Идентификатор : 6
Формат : AC-3
Формат/Информация : Audio Coding 3
Идентификатор кодека : A_AC3
Продолжительность : 1 ч. 55 м.
Вид битрейта : Постоянный
Битрейт : 448 Кбит/сек
Каналы : 6 каналов
Расположение каналов : Front: L C R, Side: L R, LFE
Частота : 48,0 КГц
Частота кадров : 31,250 кадров/сек (1536 SPF)
Битовая глубина : 16 бит
Метод сжатия : С потерями
Размер потока : 369 Мбайт (6%)
Заголовок : Антон Киреев
Язык : Russian
ServiceKind/String : Complete Main
Default : Нет
Forced : Нет

Аудио #6
Идентификатор : 7
Формат : AC-3
Формат/Информация : Audio Coding 3
Идентификатор кодека : A_AC3
Продолжительность : 1 ч. 55 м.
Вид битрейта : Постоянный
Битрейт : 448 Кбит/сек
Каналы : 6 каналов
Расположение каналов : Front: L C R, Side: L R, LFE
Частота : 48,0 КГц
Частота кадров : 31,250 кадров/сек (1536 SPF)
Битовая глубина : 16 бит
Метод сжатия : С потерями
Размер потока : 369 Мбайт (6%)
Заголовок : original
Язык : English
ServiceKind/String : Complete Main
Default : Нет
Forced : Нет

Текст #1
Идентификатор : 8
Формат : UTF-8
Идентификатор кодека : S_TEXT/UTF8
Идентификатор кодека/Информация : UTF-8 Plain Text
Продолжительность : 1 ч. 48 м.
Битрейт : 95 бит/сек
ElementCount : 1209
Размер потока : 76,0 Кбайт (0%)
Заголовок : русские
Язык : Russian
Default : Нет
Forced : Нет

Текст #2
Идентификатор : 9
Формат : UTF-8
Идентификатор кодека : S_TEXT/UTF8
Идентификатор кодека/Информация : UTF-8 Plain Text
Продолжительность : 1 ч. 47 м.
Битрейт : 64 бит/сек
ElementCount : 1306
Размер потока : 50,8 Кбайт (0%)
Заголовок : английские
Язык : English
Default : Нет
Forced : Нет

Меню
00:00:00.000 : :Chapter 01
00:07:48.342 : :Chapter 02
00:16:16.767 : :Chapter 03
00:25:09.174 : :Chapter 04
00:35:18.949 : :Chapter 05
00:42:58.826 : :Chapter 06
00:49:26.380 : :Chapter 07
01:00:26.289 : :Chapter 08
01:06:32.154 : :Chapter 09
01:16:01.180 : :Chapter 10
01:25:32.752 : :Chapter 11
01:33:24.180 : :Chapter 12
01:41:15.903 : :Chapter 13
01:47:39.202 : :Chapter 14
01:54:59.893 : :Chapter 15
pb.wtf



Скачать Столкновение через торрент https://b.radikal.ru/b43/1803/a1/3abeeeed9aa1.jpg Скачать фильм Столкновение через торрент бесплантно в хорошем качестве О фильме: Закон и преступление, порядок и беспредел, защитник и жертва — неизбежное противостояние и столкновение. Полицейские — порядок; ... 7 10 3
Info! Золотая раздача, скачанное не засчитывается.
Торрент: Зарегистрирован [2018-03-21 05:59] · скачан: 98 раз
Статус: √ проверено
Размер: 5.9 GB
Как cкачать? Как скачать Столкновение через торрент | UTorrent

% Раздел Тема Автор DL S | L
Фильмы [HD 720p, 1080p] (Хороший звук DUB, MVO) [ 16.39 GB ] Столкновение / Crash / 2004 [2004 BDRip 1080p by msltel] DUB 2 x DVO 2 x AVO msltel Скачать
1 | 0
Фильмы до 2000 г. [ 4.11 GB ] Столкновение с бездной / Deep impact [1998 катастрофа WEB-DLRip-AVC Dub 2 x MVO AVO][Open Matte] от ExKinoRay morfyi Скачать
1 | 0
Фильмы (WEB-DL 720p, 1080p) [ 8.25 GB ] Столкновение с бездной / Deep impact [1998 катастрофа WEB-DLRip 720p Dub 2 x MVO AVO][Open Matte] от ExKinoRay morfyi Скачать
1 | 0

28-11-2019 20:33  

Отключить всю рекламу на сайте

21-03-2018 06:01 Столкновение Скачать торрент  

На замену Столкновение / Crash pb.wtf



    Дорогой пользователь! Огромная просьба, поблагодарите релизера, оцените раздачу и оставьте свои комментарий, если Вы скачали Столкновение через торрент бесплатно! Внесите свою лепту в развитие PiratBit!
    Комментировать посты могут только пользователи прошедшие не сложную регистрацию
    Показать сообщения:    

    Столкновение через торрент
    Скачать бесплатно Столкновение
    Столкновение скачать торрент
    Столкновение смотреть онлайн
    Cкачать фильм Столкновение бесплатно
    Столкновение скачать торрент в хорошем качестве
    Столкновение смотреть онлайн бесплатно в хорошем качестве


    Вы не можете начинать темы
    Вы не можете отвечать на сообщения
    Вы не можете редактировать свои сообщения
    Вы не можете удалять свои сообщения
    Вы не можете голосовать в опросах
    Вы не можете прикреплять файлы к сообщениям
    Вы можете скачивать файлы