Достать ножи: Стеклянная луковица

MVO

Добыча

Дубляж

Уэнсдэй

1 сезон

Тор

Дубляж

13 клиническая

1 сезон

Жестокая ночь

MVO

Одни из нас

1 сезон

Deluxe

pack

Рекомендуем

30

Пиратка

ВАЖНО

ВАЖНО

Ghostwire

Пиратка

jed

RePack

nioh2

RePack

RDR2

RePack

NEED FOR SPEED™ PAYBACK

RePack

скачать торрент

Кинопоиск HD

Острые козырьки 6 сезон

6 сезон

FAR CRY 6

RePack

скачать торрент

Лицензия

скачать торрент

MVO

1

1 сезон

скачать торрент

1 сезон

скачать торрент

Лицензия

  

Слепой музыкант (Татьяна Лукашевич) [1960, СССР, драма, DVDRip от AVP Studio]

Слепой музыкант через торрент pb.wtf

Размер: 1.09 GB | Добавлен: 4 года 10 мес. назад | Торрент скачан:25 раз
Смотреть онлайн | Скачать | Поддержите нас   

21-03-2018 08:21 Слепой музыкант Скачать торрент  

Слепой музыкант
Страна: СССР
Производство: Мосфильм

Жанр: драма
Год выпуска: 1960
Продолжительность: 01:14:15

Перевод: Не требуется
Cубтитры: нет
Оригинальная аудиодорожка: русский

Режиссер: Татьяна Лукашевич

В ролях:
Борис Ливанов, Василий Ливанов, Сережа Шестопалов, Марианна Стриженова, Лариса Курдюмова, Марина Куракова, Юрий Пузырёв, Алексей Грибов, Сергей Блинников, Виктор Мурганов, Вадим Грачёв, Никита Кондратьев, Александр Смирнов, Николай Козинин...
Об актёрах подробней

Описание:
По одноименной повести В. Короленко.
В богатой дворянской семье Попельских единственный сын Петрик (Василий Ливанов) слеп от рожденья. Мать Петрика Анна Михайловна, бесконечно любя и жалея мальчика, воспитывает его как редкостный хрупкий цветок. И только дядя Петрика Максим (Борис Ливанов), в юности сражавшийся под знаменем Гарибальди, пытается приучить мальчика к самостоятельности, знакомит его с внешним миром, стремясь обогатить и закалить душу ребенка.

Источник: DVD5 R5
Качество видео: DVDRip
Формат видео: AVI

Видео: 688x512 (4:3), 25,000 кадров/сек, XviD ~ 1895 kbps avg, 0.215 bit/pixel
Аудио: 48 kHz, Dolby Digital AC3 2.0, 192 kbps

Раздача от:
Общее
Полное имя : Slepoy.muzykant.1960.DVDRip_[New-team]_by_AVP_Studio.avi
Формат : AVI
Формат/Информация : Audio Video Interleave
Размер файла : 1,09 Гбайт
Продолжительность : 1 ч. 14 м.
Общий поток : 2097 Кбит/сек
Программа кодирования : VirtualDubMod 1.5.10.3 | www.virtualdub-fr.org || (build 2550/release)
Библиотека кодирования : VirtualDubMod build 2550/release

Видео
Идентификатор : 0
Формат : MPEG-4 Visual
Профиль формата : Advanced [email protected]
Настройки формата : BVOP1 / Custom Matrix
Параметр BVOP формата : 1
Параметр QPel формата : Нет
Параметр GMC формата : Без точки перехода
Параметр матрицы формата : Выборочная
Идентификатор кодека : XVID
Идентификатор кодека/Подсказка : XviD
Продолжительность : 1 ч. 14 м.
Битрейт : 1895 Кбит/сек
Ширина : 688 пикселей
Высота : 512 пикселей
Соотношение сторон : 4:3
Частота кадров : 25,000 кадров/сек
Цветовое пространство : YUV
Субдискретизация насыщенности : 4:2:0
Битовая глубина : 8 бит
Тип развёртки : Прогрессивная
Метод сжатия : С потерями
Бит/(Пиксели*Кадры) : 0.215
Размер потока : 1006 Мбайт (90%)
Библиотека кодирования : XviD 73

Аудио
Идентификатор : 1
Формат : AC-3
Формат/Информация : Audio Coding 3
Идентификатор кодека : 2000
Продолжительность : 1 ч. 14 м.
Вид битрейта : Постоянный
Битрейт : 192 Кбит/сек
Каналы : 2 канала
Расположение каналов : Front: L R
Частота : 48,0 КГц
Частота кадров : 31,250 кадров/сек (1536 SPF)
Битовая глубина : 16 бит
Метод сжатия : С потерями
Размер потока : 102 Мбайт (9%)
Выравнивание : Разделение по промежуткам
Продолжительность промежутка : 40 мс. (1,00 видеокадр)
Время предзагрузки промежутка : 500 мс



Скачать Слепой музыкант через торрент http://picplus.ru/img/1803/21/3f2c7551.png Скачать, смотреть онлайн Слепой музыкант бесплантно в хорошем качестве Описание:По одноименной повести В. Короленко.В богатой дворянской семье Попельских единственный сын Петрик (Василий Ливанов) слеп от ... 5 10 1
Info! Золотая раздача, скачанное не засчитывается.
Торрент: Зарегистрирован [2018-03-21 08:21] · скачан: 25 раз
Статус: √ проверено
Размер: 1.09 GB
Как cкачать? Как скачать Слепой музыкант через торрент | UTorrent

% Раздел Тема Автор DL S | L
Кино СССР [ 1.09 GB ] Слепой музыкант | | DVDRip-AVC от AVP Studio AVP Studio Скачать
1 | 0

28-11-2019 20:33  


Отключить вcю реклaмy на сайте, в т.ч. и в плеере онлайн просмотра!

    Дорогой пользователь! Огромная просьба, поблагодарите релизера, оцените раздачу и оставьте свои комментарий, если Вы скачали Слепой музыкант через торрент бесплатно!!
    Комментировать посты могут только пользователи прошедшие не сложную регистрацию
    Показать сообщения:    


    Слепой музыкант через торрент
    Скачать бесплатно Слепой музыкант
    Слепой музыкант скачать торрент
    Слепой музыкант смотреть онлайн
    Cкачать фильм Слепой музыкант бесплатно
    Слепой музыкант скачать торрент в хорошем качестве
    Слепой музыкант смотреть онлайн бесплатно в хорошем качестве
    Вы не можете начинать темы
    Вы не можете отвечать на сообщения
    Вы не можете редактировать свои сообщения
    Вы не можете удалять свои сообщения
    Вы не можете голосовать в опросах
    Вы не можете прикреплять файлы к сообщениям
    Вы можете скачивать файлы
    Слепой музыкант [1960, СССР, драма, DVDRip от AVP Studio] смотреть онлайн, скачать торрент picoco.icu