Ссылка на приватное зеркало всего за 1$. Внимание количество ограничено!!!


iTunes

1+1

iTunes

мы

WEB-DL

1

iTunes

Чернобыль

iTunes

Ральф против интернета

Лицензия

ПШазам

Лицензия

Оно 2

WEB-DL

30
pack

Вам бонус

ВАЖНО

!!Акция!!

Alien_RageХит недели

RePack

Resident Evil 21

ИГРА 18+

pack

RePack

jed

!!Акция!!

Alien_Rage

RePack

fifa19

RePack

Assassins Creed: Odyssey

RePack

NEED FOR SPEED™ PAYBACK

4 сезон

9 сезон

Бесстыжие 9 сезон

Все сериалы

все сериалы на PB.wtf

RePack

FAR CRY 5
Ребята, катастрофически не хватает 1900р. для оплаты серверов за Октябрь (всвязи с блокировками трафик упал в 3 раза), 1-2р., выручайте.
  

Ходячие мертвецы / The Walking Dead / Сезон: 8 / Серии: 1-16 из 16 (Грег Никотеро, Эрнест Р. Дикерсон, Гай Ферленд) [2017-2018, ужасы, драма, WEBRip 720p] [MVO] (Jaskier) pb.wtf

Ходячие мертвецы через торрент pb.wtf

Размер: 27.05 GB | Добавлен: 1 год 7 мес. назад | Торрент скачан:17 раз
Скачать  

21-03-2018 12:38 Ходячие мертвецы Скачать торрент  


Ходячие мертвецы | The Walking Dead

• Год выпуска: 2017-2018
• Страна: США
• Жанр: Ужасы, триллер, драма
• Продолжительность: ~ 00:43:00
• Перевод: Профессиональный (многоголосый закадровый) | Jaskier
• Субтитры: английские

• Режиссёр: Эрнест Р. Дикерсон, Грег Никотеро, Гай Ферленд

• В ролях: Эндрю Линкольн, Скотт Уилсон, Данай Джекесай Гурира, Дэвид Моррисси, Стивен Юн, Лорен Коэн, Чендлер Риггз, Норман Ридус, Мелисса Сюзанн МакБрайд, Эмили Кинни, Чад Коулмэн, Сонеква Мартин

• Описание: Сериал рассказывает историю жизни семьи шерифа после того, как «зомби» — эпидемия апокалиптических масштабов захлестнула земной шар. Шериф Рик Граймс путешествует со своей семьей и небольшой группой выживших в поисках безопасного места для жизни. Но постоянный страх смерти каждый день приносит тяжелые потери, заставляя героев почувствовать глубины человеческой жестокости.



• Качество: WEBRip 720p
• Формат: MKV
• Видео: MPEG-4 AVC, ~ 7500 Кбит/с, 1280x720, 23.976 fps
• Аудио: AC3, 48 kHz, 2 ch, 384 kbps - Jaskier
• Аудио: AC3, 48 kHz, 6 ch, 384 kbps - ENG
General
Unique ID : 201769023103569953953901684909206804790 (0x97CB4CE3606CFCD3A510475B9E7E1936)
Complete name : E:\TWD. Season 8 (WEBRip l 720p l Jaskier)\The.Walking.Dead.S08E12.720p.AMZN.WEBRip.DDP5.1.H.264-Jaskier.mkv
Format : Matroska
Format version : Version 2
File size : 1.60 GiB
Duration : 46 min 4 s
Overall bit rate mode : Variable
Overall bit rate : 4 977 kb/s
Encoded date : UTC 2018-03-20 10:53:48
Writing application : mkvmerge v7.8.0 ('River Man') 32bit built on Apr 3 2015 12:11:22
Writing library : libebml v1.3.1 + libmatroska v1.4.2

Video
ID : 1
Format : AVC
Format/Info : Advanced Video Codec
Format profile : High@L3.1
Format settings : CABAC / 5 Ref Frames
Format settings, CABAC : Yes
Format settings, RefFrames : 5 frames
Codec ID : V_MPEG4/ISO/AVC
Duration : 46 min 4 s
Bit rate mode : Variable
Bit rate : 4 110 kb/s
Maximum bit rate : 4 500 kb/s
Width : 1 280 pixels
Height : 720 pixels
Display aspect ratio : 16:9
Frame rate mode : Constant
Frame rate : 23.976 (24000/1001) FPS
Color space : YUV
Chroma subsampling : 4:2:0
Bit depth : 8 bits
Scan type : Progressive
Bits/(Pixel*Frame) : 0.186
Stream size : 1.32 GiB (83%)
Language : English
Default : Yes
Forced : No
Color range : Limited
Color primaries : BT.709
Transfer characteristics : BT.709
Matrix coefficients : BT.709

Audio #1
ID : 2
Format : AC-3
Format/Info : Audio Coding 3
Format settings, Endianness : Big
Codec ID : A_AC3
Duration : 46 min 4 s
Bit rate mode : Constant
Bit rate : 384 kb/s
Channel(s) : 6 channels
Channel positions : Front: L C R, Side: L R, LFE
Sampling rate : 48.0 kHz
Frame rate : 31.250 FPS (1536 SPF)
Bit depth : 16 bits
Compression mode : Lossy
Stream size : 127 MiB (8%)
Title : Jaskier
Language : Russian
Service kind : Complete Main
Default : Yes
Forced : No

Audio #2
ID : 3
Format : AC-3
Format/Info : Audio Coding 3
Format settings, Endianness : Big
Codec ID : A_AC3
Duration : 46 min 4 s
Bit rate mode : Constant
Bit rate : 384 kb/s
Channel(s) : 6 channels
Channel positions : Front: L C R, Side: L R, LFE
Sampling rate : 48.0 kHz
Frame rate : 31.250 FPS (1536 SPF)
Bit depth : 16 bits
Compression mode : Lossy
Stream size : 127 MiB (8%)
Language : English
Service kind : Complete Main
Default : No
Forced : No

Text
ID : 4
Format : UTF-8
Codec ID : S_TEXT/UTF8
Codec ID/Info : UTF-8 Plain Text
Language : English
Default : No
Forced : No
скриншот  скриншот  скриншот  
Когда раздача ведётся путём добавления новых серий, при каждом добавлении создётся новый торрент. Чтобы начать докачку новой серии, пользователям необходимо сделать следующее:
(1) остановить скачивание,
(2) удалить старый торрент у себя из клиента (старые серии удалять не надо),
(3) скачать новый торрент и запустить его у себя в клиенте вместо старого, при этом указать клиенту путь в старую папку, куда и должно происходить скачивание новых серий.
Ваш клиент при этом должен произвести хеширование (проверку) старой папки (если не производит сам - помогите ему сделать это), и будет докачивать только те серии, которых у вас ещё нет. Старые серии при этом не удаляются, а продолжают раздаваться!
Eсли вы уже удалили старые серии, то предотвратить повторную закачку старых серий можно, отжав галочку в соответсвующих местах при запуске нового торрента. По возможности, желательно не удалять старые серии как можно дольше, чтобы релизёр не столько продолжал раздавать старые серии, а смог сконцентрироваться на новых.
pb.wtf



Скачать Ходячие мертвецы через торрент http://i89.fastpic.ru/big/2017/1023/dd/a0d6d119dd320ee47ec7c6c24a4384dd.jpg Скачать фильм Ходячие мертвецы через торрент бесплантно в хорошем качестве Описание: Сериал рассказывает историю жизни семьи шерифа после того, как «зомби» — эпидемия апокалиптических масштабов захлестнула земной ... 10 10 4
Info! Серебряная раздача, засчитывается только 50% скачанного.
Торрент: Зарегистрирован [2018-04-17 10:18] · скачан: 17 раз
Статус: √ проверено
Размер: 27.05 GB
Как cкачать? Как скачать Ходячие мертвецы через торрент | qTorrent

% Раздел Тема Автор DL S | L
Ходячие мертвецы (The Walking Dead) [ 4.32 GB ] Ходячие мертвецы / The Walking Dead / Сезон: 10 / Серии: 1-8 из 16 [2019 WEBRip] DVO [Kerob] bober100 Скачать
3 | 4
T Ходячие мертвецы (The Walking Dead) [ 20.8 GB ] Ходячие мертвецы / The Walking Dead / Сезон: 10 / Серии: 1-8 из 16 [2019 WEBRip 1080p] DVO [Kerob] bober100 Скачать
1 | 2
T Ходячие мертвецы (The Walking Dead) [ 3.25 GB ] Ходячие мертвецы / The Walking Dead / Сезон: 10 / Серии: 1-8 из 16 [2019 WEBRip] [MVO] killermax2013 Скачать
1 | 2
Ходячие мертвецы (The Walking Dead) [ 27.37 GB ] Ходячие мертвецы / The Walking Dead / Сезон: 10 / Серии: 1-8 из 16 [2019 WEB-DL 1080p] MVO [Jaskier] bober100 Скачать
2 | 1
Ходячие мертвецы (The Walking Dead) [ 17.19 GB ] Ходячие мертвецы / The Walking Dead / Сезон: 10 / Серии: 1-8 из 16 [2019 WEB-DL 720p] MVO [Jaskier] bober100 Скачать
3 | 0
Ходячие мертвецы (The Walking Dead) [ 4.45 GB ] Ходячие мертвецы / The Walking Dead / Сезон: 10 / Серии: 1-8 из 16 [2019 WEB-DLRip] MVO [Jaskier] bober100 Скачать
4 | 1
T Ходячие мертвецы (The Walking Dead) [ 10.06 GB ] Ходячие мертвецы / The Walking Dead / Сезон: 10 / Серии: 1-8 из 16 [2019 WEBRip 720p] [MVO] killermax2013 Скачать
2 | 1


Последний раз редактировалось: killermax2013 (2018-04-17 10:18), всего редактировалось 3 раз(а)

28-11-2019 20:33  

Отключить всю рекламу на сайте

27-03-2018 13:15 Ходячие мертвецы Скачать торрент  

+13pb.wtf



04-04-2018 09:42 Ходячие мертвецы Скачать торрент  

+14pb.wtf



12-04-2018 09:40 Ходячие мертвецы Скачать торрент  

+15pb.wtf



17-04-2018 10:18 Ходячие мертвецы Скачать торрент  

+16pb.wtf



    Дорогой пользователь! Огромная просьба, поблагодарите релизера, оцените раздачу и оставьте свои комментарий, если Вы скачали Ходячие мертвецы через торрент бесплатно! Внесите свою лепту в развитие PiratBit!
    Комментировать посты могут только пользователи прошедшие не сложную регистрацию
    Показать сообщения:    

    Ходячие мертвецы через торрент
    Скачать бесплатно Ходячие мертвецы
    Ходячие мертвецы скачать торрент
    Ходячие мертвецы смотреть онлайн
    Cкачать фильм Ходячие мертвецы бесплатно
    Ходячие мертвецы скачать торрент в хорошем качестве
    Ходячие мертвецы смотреть онлайн бесплатно в хорошем качестве


    Вы не можете начинать темы
    Вы не можете отвечать на сообщения
    Вы не можете редактировать свои сообщения
    Вы не можете удалять свои сообщения
    Вы не можете голосовать в опросах
    Вы не можете прикреплять файлы к сообщениям
    Вы можете скачивать файлы