Достать ножи: Стеклянная луковица

MVO

Добыча

Дубляж

Уэнсдэй

1 сезон

Тор

Дубляж

13 клиническая

1 сезон

Жестокая ночь

MVO

Одни из нас

1 сезон

Deluxe

pack

Рекомендуем

30

Пиратка

ВАЖНО

ВАЖНО

Ghostwire

Пиратка

jed

RePack

nioh2

RePack

RDR2

RePack

NEED FOR SPEED™ PAYBACK

RePack

скачать торрент

Кинопоиск HD

Острые козырьки 6 сезон

6 сезон

FAR CRY 6

RePack

скачать торрент

Лицензия

скачать торрент

MVO

1

1 сезон

скачать торрент

1 сезон

скачать торрент

Лицензия

  

РобоКоп / RoboCop (Жозе Падилья) [2014 г., фантастика, боевик, криминал, BDRip 1080p [HEVC], Дубляж]

РобоКоп через торрент pb.wtf

Раздают: 1 [ 0 KB/s ]
Размер: 4.14 GB | Добавлен: 4 года 10 мес. назад | Торрент скачан:307 раз
Смотреть онлайн | Скачать | Поддержите нас   

21-03-2018 13:23 РобоКоп Скачать торрент  

РобоКоп / RoboCop
Год выпуска: 2014
Страна: США
Жанр: фантастика, боевик, криминал
Продолжительность: 01:57:29
Перевод: Дубляж
Субтитры: Отсутствуют

Режиссер: Жозе Падилья

rating

В ролях: Юэль Киннаман, Гари Олдман, Майкл Китон, Эбби Корниш, Джеки Эрл Хейли, Сэмюэл Л. Джексон, Майкл К. Уильямс, Дженнифер Или, Марианн Жан-Батист, Айми Гарсиа

Описание: 2028 год. Международный конгломерат ОмниКорп лидирует в производстве робототехники. Благодаря разработкам компании Америка успешно побеждает в войнах по всему миру. Но теперь пришло время применить технологию на американской земле. Алекс Мерфи - любящий муж, отец и отличный полицейский, оберегающий порядок в Детройте, получает на службе смертельные ранения. Специалисты ОмниКорпа, используя новейшие разработки, сохраняют ему жизнь. Алекс возвращается на службу в родной город не только с новыми сверхспособностями, но и с проблемами, с которыми не сталкивался ни один живой человек.

Качество: BDRip 1080p
Формат: MKV
Видео кодек: H.265
Аудио кодек: AC3
Видео: 1920x800, ~4401 Kbps [Main [email protected]@Main]
Аудио: AC3, 6 ch, 640 Kbps
Релиз от: HANNIBAL
Общее
Уникальный идентификатор : 225726455145618669584105541414767144403 (0xA9D1557BD0E8607AA4180C31FE89ADD3)
Полное имя : J:\ФИЛЬМЫ\RoboCop (2014) BDRip 1080p [HEVC] 10bit.mkv
Формат : Matroska
Версия формата : Version 4 / Version 2
Размер файла : 4,14 Гбайт
Продолжительность : 1 ч. 57 м.
Общий поток : 5043 Кбит/сек
Дата кодирования : UTC 2018-03-04 10:41:40
Программа кодирования : mkvmerge v8.9.0 ('Father Daughter') 64bit
Библиотека кодирования : libebml v1.3.3 + libmatroska v1.4.4 / Lavf57.71.100
Обложка : Yes
Attachments : cover.jpg
ENCODING_INFO : MPEGTS > MKV / H264 > X265 CBR 4500kbps Medium / DTS > AC3 CBR 640kbps

Видео
Идентификатор : 1
Формат : HEVC
Формат/Информация : High Efficiency Video Coding
Профиль формата : Main [email protected]@Main
Идентификатор кодека : V_MPEGH/ISO/HEVC
Продолжительность : 1 ч. 57 м.
Битрейт : 4401 Кбит/сек
Ширина : 1920 пикселей
Высота : 800 пикселей
Соотношение сторон : 2,40:1
Режим частоты кадров : Постоянный
Частота кадров : 23,976 (24000/1001) кадра/сек
Цветовое пространство : YUV
Субдискретизация насыщенности : 4:2:0
Битовая глубина : 10 бит
Бит/(Пиксели*Кадры) : 0.120
Размер потока : 3,61 Гбайт (87%)
Библиотека кодирования : x265 2.6+49-7219376de42a:[Windows][clang 7.0.0][64 bit] 10bit
Настройки программы : cpuid=1050111 / frame-threads=5 / numa-pools=4 / wpp / no-pmode / no-pme / no-psnr / no-ssim / log-level=3 / input-csp=1 / input-res=1920x800 / interlace=0 / total-frames=0 / level-idc=51 / high-tier=1 / uhd-bd=0 / ref=3 / allow-non-conformance / no-repeat-headers / annexb / no-aud / no-hrd / info / hash=0 / no-temporal-layers / open-gop / min-keyint=24 / keyint=240 / gop-lookahead=0 / bframes=4 / b-adapt=2 / b-pyramid / bframe-bias=0 / rc-lookahead=20 / lookahead-slices=5 / scenecut=40 / radl=0 / no-intra-refresh / ctu=64 / min-cu-size=8 / no-rect / no-amp / max-tu-size=32 / tu-inter-depth=1 / tu-intra-depth=1 / limit-tu=0 / rdoq-level=0 / dynamic-rd=0.00 / no-ssim-rd / signhide / no-tskip / nr-intra=0 / nr-inter=0 / no-constrained-intra / strong-intra-smoothing / max-merge=2 / limit-refs=3 / no-limit-modes / me=1 / subme=2 / merange=57 / temporal-mvp / weightp / no-weightb / no-analyze-src-pics / deblock=-2:-2 / sao / no-sao-non-deblock / rd=3 / no-early-skip / rskip / no-fast-intra / no-tskip-fast / no-cu-lossless / no-b-intra / no-splitrd-skip / rdpenalty=0 / psy-rd=2.00 / psy-rdoq=0.00 / no-rd-refine / no-lossless / cbqpoffs=0 / crqpoffs=0 / rc=cbr / bitrate=4500 / qcomp=0.60 / qpstep=4 / stats-write=0 / stats-read=0 / vbv-maxrate=4500 / vbv-bufsize=3214 / vbv-init=0.9 / ipratio=1.40 / pbratio=1.30 / aq-mode=1 / aq-strength=1.00 / cutree / zone-count=0 / no-strict-cbr / qg-size=32 / no-rc-grain / qpmax=69 / qpmin=0 / no-const-vbv / sar=1 / overscan=0 / videoformat=5 / range=0 / colorprim=9 / transfer=14 / colormatrix=10 / chromaloc=0 / display-window=0 / max-cll=0,0 / min-luma=0 / max-luma=1023 / log2-max-poc-lsb=8 / vui-timing-info / vui-hrd-info / slices=1 / no-opt-qp-pps / no-opt-ref-list-length-pps / no-multi-pass-opt-rps / scenecut-bias=0.05 / no-opt-cu-delta-qp / no-aq-motion / no-hdr / no-hdr-opt / no-dhdr10-opt / analysis-reuse-level=5 / scale-factor=0 / refine-intra=0 / refine-inter=0 / refine-mv=0 / no-limit-sao / ctu-info=0 / no-lowpass-dct / refine-mv-type=0 / copy-pic=1
Default : Да
Forced : Нет
Цветовой диапазон : Limited
Основные цвета : BT.2020
Характеристики трансфера : BT.2020 (10-bit)
Коэффициенты матрицы : BT.2020 constant

Аудио
Идентификатор : 2
Формат : AC-3
Формат/Информация : Audio Coding 3
Идентификатор кодека : A_AC3
Продолжительность : 1 ч. 57 м.
Вид битрейта : Постоянный
Битрейт : 640 Кбит/сек
Каналы : 6 каналов
Расположение каналов : Front: L C R, Side: L R, LFE
Частота : 48,0 КГц
Частота кадров : 31,250 кадров/сек (1536 SPF)
Битовая глубина : 16 бит
Метод сжатия : С потерями
Размер потока : 538 Мбайт (13%)
ServiceKind/String : Complete Main
Default : Да
Forced : Нет




Скачать РобоКоп через торрент https://a.radikal.ru/a35/1803/73/d21eb4ff864c.jpg Скачать, смотреть онлайн РобоКоп бесплантно в хорошем качестве Описание: 2028 год. Международный конгломерат ОмниКорп лидирует в производстве робототехники. Благодаря разработкам компании Америка ... 10 10 11
Info! Золотая раздача, скачанное не засчитывается.
Торрент: Зарегистрирован [2018-03-21 13:23] · скачан: 307 раз
Статус: √ проверено
Размер: 4.14 GB
Как cкачать? Как скачать РобоКоп через торрент | UTorrent

% Раздел Тема Автор DL S | L
Фильмы (HD 720p, 1080p) (48-60 fps) [ 4.07 GB ] РобоКоп / RoboCop | Дубляж | 720p / 60 FPS slaventi-69 Скачать
3 | 0
Фильмы [HD 720p, 1080p] (Хороший звук DUB, MVO) [ 8.25 GB ] Робокоп / RoboCop | Дубляж + Оригинал | 1080p, Дубляж + Оригинал Бумер Скачать
1 | 0
Фильмы (Blu-ray, BD-Remux, HDDVD) [ 35.6 GB ] Робокоп / RoboCop | DUB | 1080p sheker187 Скачать
1 | 0
Фильмы 2014 [DVDrip, WEB-DLRip, HDrip] [ 2.18 GB ] Робокоп / RoboCop | Лицензия | BDRip-AVC potroks Скачать
1 | 0
Фильмы 2014 [DVDrip, WEB-DLRip, HDrip] [ 1.45 GB ] Робокоп / RoboCop | Лицензия | BDRip-AVC potroks Скачать
1 | 0
Фильмы 2013 [DVDrip, WEB-DLRip, HDrip] [ 1008 MB ] РобоКоп / RoboCop | Лицензия | DLRip killermax2013 Скачать
1 | 0
Фильмы (DVD фильмы) [ 6.28 GB ] РобоКоп / RoboCop | | 2014, фантастика, боевик, криминал, DVD9 voovaz Скачать
1 | 0

28-11-2019 20:33  


Отключить вcю реклaмy на сайте, в т.ч. и в плеере онлайн просмотра!

23-03-2018 07:17 РобоКоп Скачать торрент  

Видео кодек: H.265 - это хоть где-то читается???



23-03-2018 07:51 РобоКоп Скачать торрент  

serega_d писал(а):

Видео кодек: H.265 - это хоть где-то читается???

Есть приставки, есть телевизоры 4к, я смотрю на компе в PotPlayer (64-bit) через кабель HDMI на телевизоре.



    Дорогой пользователь! Огромная просьба, поблагодарите релизера, оцените раздачу и оставьте свои комментарий, если Вы скачали РобоКоп через торрент бесплатно!!
    Комментировать посты могут только пользователи прошедшие не сложную регистрацию
    Показать сообщения:    


    РобоКоп через торрент
    Скачать бесплатно РобоКоп
    РобоКоп скачать торрент
    РобоКоп смотреть онлайн
    Cкачать фильм РобоКоп бесплатно
    РобоКоп скачать торрент в хорошем качестве
    РобоКоп смотреть онлайн бесплатно в хорошем качестве
    Вы не можете начинать темы
    Вы не можете отвечать на сообщения
    Вы не можете редактировать свои сообщения
    Вы не можете удалять свои сообщения
    Вы не можете голосовать в опросах
    Вы не можете прикреплять файлы к сообщениям
    Вы можете скачивать файлы
    РобоКоп / RoboCop [2014 г., фантастика, боевик, криминал, BDRip 1080p [HEVC], Дубляж] смотреть онлайн, скачать торрент picoco.icu