2 сезон

iTunes

MVO

1

2 сезон

iTunes

iTunes

1 сезон

RePack

30

Новинка

ВАЖНО

ИГРА 18+

pack

RePack

MK11
pack

Легкие деньги

RePack

jed

RePack

fifa19

RePack

RDR2

RePack

NEED FOR SPEED™ PAYBACK

4 сезон

9 сезон

Бесстыжие 9 сезон

Все сериалы

все сериалы на PB.wtf

RePack

FAR CRY 5

Anonymous, доброй ночи, мы не успеваем собрать деньги на оплату серверов за декабрь и январь, помогите нам пожалуйста в это трудное время. В качестве благодарности мы отключим Вам всю рекламу на сайте (укажите свой ник в строку Ваше имя)!

×
  
Magnet ссылка

Афера доктора Нока / Knock (Лоррэйн Леви) [2017, комедия, BDRip-AVC] DUB [Лицензия] pb.wtf

Афера доктора Нока через торрент pb.wtf

Размер: 1.55 GB | Добавлен: 2 года 9 мес. назад | Торрент скачан:152 раза
Скачать  

21-03-2018 16:03 Афера доктора Нока Скачать торрент  

Афера доктора Нока / KnockГод выпуска: 2017
Страна: Франция, Бельгия
Жанр: комедия
Продолжительность: 01:54:01
Перевод: Дубляж | Лицензия
Субтитры: отсутствуют

Режиссер: Лоррэйн Леви

rating

В ролях:

Омар Си, Алекс Лутс, Ана Жирардо, Сабин Азема, Паскаль Элбе, Одри Дана, Мишель Вюйермоз, Кристиан Эк, Элен Венсан, Андреа Ферреоль

Описание:

1950-е. Карманник и авантюрист Нок, скрываясь от «коллег» в небольшом французском городке Сен-Морис, притворяется лицензированным врачом. Он придумал хитрый, но простой план, как не остаться без средств к существованию: лечить здоровых людей от несуществующих у них болезней. Нок - мастер в искусстве манипуляции и соблазнения - почти достиг желанной цели, если бы не два небольших затруднения: он влюбился, а на пороге неожиданно появился друг из прошлого, который намерен рассказать всю правду о докторе.

Качество: BDRip-AVC
Формат: MKV

Видео: 1024x432 (2.40:1), 23,976 fps, x264 ~1 498 kbps avg, 0.141 bit/pixel
Аудио: 48 kHz, AC3 Dolby Digital, 3/2 (L,C,R,l,r) + LFE ch, ~448.00 kbps avg | RUS (Лицензия)
скриншот   скриншот   скриншот   скриншот   скриншот   скриншот  

Общее
Уникальный идентификатор : 231070922726679267913619363548532503263 (0xADD6A4145BD7E174AA65C0CB4C9EF2DF)
Полное имя : E:OlLanDGroupKnock.2017.BDRip(AVC).OlLanDGroup.mkv
Формат : Matroska
Версия формата : Version 2
Размер файла : 1,55 Гбайт
Продолжительность : 1 ч. 54 м.
Общий поток : 1947 Кбит/сек
Название фильма : Knock.2017 #TorpedoUK#
Дата кодирования : UTC 2018-03-21 15:18:17
Программа кодирования : mkvmerge v7.8.0 ('River Man') 32bit built on Apr 3 2015 12:11:22
Библиотека кодирования : libebml v1.3.1 + libmatroska v1.4.2

Видео
Идентификатор : 1
Формат : AVC
Формат/Информация : Advanced Video Codec
Профиль формата : High@L4.1
Параметр CABAC формата : Да
Параметр ReFrames формата : 10 кадров
Идентификатор кодека : V_MPEG4/ISO/AVC
Продолжительность : 1 ч. 54 м.
Битрейт : 1498 Кбит/сек
Ширина : 1024 пикселя
Высота : 432 пикселя
Соотношение сторон : 2,40:1
Режим частоты кадров : Постоянный
Частота кадров : 23,976 (24000/1001) кадра/сек
Цветовое пространство : YUV
Субдискретизация насыщенности : 4:2:0
Битовая глубина : 8 бит
Тип развёртки : Прогрессивная
Бит/(Пиксели*Кадры) : 0.141
Размер потока : 1,16 Гбайт (75%)
Библиотека кодирования : x264 core 146 r2538 121396c
Настройки программы : cabac=1 / ref=10 / deblock=1:-3:-3 / analyse=0x3:0x133 / me=umh / subme=11 / psy=1 / psy_rd=0.99:0.07 / mixed_ref=1 / me_range=48 / chroma_me=1 / trellis=2 / 8x8dct=1 / cqm=0 / deadzone=21,11 / fast_pskip=1 / chroma_qp_offset=-3 / threads=6 / lookahead_threads=1 / sliced_threads=0 / nr=0 / decimate=1 / interlaced=0 / bluray_compat=0 / constrained_intra=0 / bframes=10 / b_pyramid=2 / b_adapt=2 / b_bias=0 / direct=3 / weightb=1 / open_gop=0 / weightp=2 / keyint=240 / keyint_min=23 / scenecut=40 / intra_refresh=0 / rc_lookahead=40 / rc=2pass / mbtree=0 / bitrate=1498 / ratetol=1.0 / qcomp=0.60 / qpmin=0 / qpmax=69 / qpstep=4 / cplxblur=20.0 / qblur=0.5 / vbv_maxrate=50000 / vbv_bufsize=62500 / nal_hrd=none / filler=0 / ip_ratio=1.40 / pb_ratio=1.30 / aq=1:1.00
Язык : English
Default : Да
Forced : Нет

Аудио
Идентификатор : 2
Формат : AC-3
Формат/Информация : Audio Coding 3
Расширение режима : CM (complete main)
Параметр Endianness формата : Big
Идентификатор кодека : A_AC3
Продолжительность : 1 ч. 54 м.
Вид битрейта : Постоянный
Битрейт : 448 Кбит/сек
Каналы : 6 каналов
Расположение каналов : Front: L C R, Side: L R, LFE
Частота : 48,0 КГц
Частота кадров : 31,250 кадров/сек (1536 spf)
Битовая глубина : 16 бит
Метод сжатия : С потерями
Размер потока : 365 Мбайт (23%)
Заголовок : Lic
Язык : Russian
Default : Да
Forced : Нет

Меню
00:00:00.000 : en:00:00:00.000
00:10:59.951 : en:00:10:59.951
00:22:23.050 : en:00:22:23.050
00:32:14.599 : en:00:32:14.599
00:42:45.062 : en:00:42:45.062
00:53:05.474 : en:00:53:05.474
01:02:24.741 : en:01:02:24.741
01:11:57.522 : en:01:11:57.522
01:22:32.990 : en:01:22:32.990
01:33:03.411 : en:01:33:03.411
01:42:20.217 : en:01:42:20.217
01:50:51.854 : en:01:50:51.854

pb.wtf



Скачать Афера доктора Нока через торрент http://lostpix.com/img/2018-02/20/hxhavjc4v1pjk9b8bxiuvunri.jpg Скачать фильм Афера доктора Нока через торрент бесплантно в хорошем качестве Описание: 1950-е. Карманник и авантюрист Нок, скрываясь от «коллег» в небольшом французском городке Сен-Морис, притворяется лицензированным ... 10 10 2
Торрент: Зарегистрирован [2018-03-21 16:03] · скачан: 152 раз
Статус: √ проверено
Размер: 1.55 GB
Как cкачать? Как скачать Афера доктора Нока через торрент | UTorrent

% Раздел Тема Автор DL S | L
Фильмы 2017 [DVDrip, WEB-DLRip, HDrip] (DUB, MVO) [ 2.18 GB ] Афера доктора Нока / Knock [2017 BDRip] - [] Twi7ter Скачать
1 | 0
Фильмы [HD 720p, 1080p] (Хороший звук DUB, MVO) [ 5.78 GB ] Афера доктора Нока / Knock [2017 BDRip 720p] DUB [] bober100 Скачать
1 | 0
Фильмы [HD 720p, 1080p] (Хороший звук DUB, MVO) [ 10.16 GB ] Афера доктора Нока / Knock [2017 BDRip 1080p] DUB [] bober100 Скачать
1 | 0
Фильмы (Blu-ray, BD-Remux, HDDVD) [ 22.79 GB ] Афера доктора Нока / Knock [2017 Blu-ray 1080p] DUB [Rus Transfer] [] bober100 Скачать
1 | 0
Фильмы 2017 [DVDrip, WEB-DLRip, HDrip] (DUB, MVO) [ 1.46 GB ] Афера доктора Нока / Knock [2017 BDRip] DUB [ BD RUS] bober100 Скачать
1 | 0
Фильмы 2017 [DVDrip, WEB-DLRip, HDrip] (DUB, MVO) [ 1.46 GB ] Афера доктора Нока / Knock [2017 BDRip] - [] Twi7ter Скачать
2 | 0
Фильмы 2017 [DVDrip, WEB-DLRip, HDrip] (DUB, MVO) [ 744 MB ] Афера доктора Нока / Knock [2017 BDRip-AVC] bober100 Скачать
1 | 0

28-11-2019 20:33  

Отключить всю рекламу на сайте

    Дорогой пользователь! Огромная просьба, поблагодарите релизера, оцените раздачу и оставьте свои комментарий, если Вы скачали Афера доктора Нока через торрент бесплатно! Внесите свою лепту в развитие PiratBit!
    Комментировать посты могут только пользователи прошедшие не сложную регистрацию
    Показать сообщения:    

    Афера доктора Нока через торрент
    Скачать бесплатно Афера доктора Нока
    Афера доктора Нока скачать торрент
    Афера доктора Нока смотреть онлайн
    Cкачать фильм Афера доктора Нока бесплатно
    Афера доктора Нока скачать торрент в хорошем качестве
    Афера доктора Нока смотреть онлайн бесплатно в хорошем качестве


    Вы не можете начинать темы
    Вы не можете отвечать на сообщения
    Вы не можете редактировать свои сообщения
    Вы не можете удалять свои сообщения
    Вы не можете голосовать в опросах
    Вы не можете прикреплять файлы к сообщениям
    Вы можете скачивать файлы