Ссылка на приватное зеркало нашего сайта всего за 1$. Внимание количество ограничено!!!

2 сезон

iTunes

1 сезон

1

iTunes

iTunes

iTunes

1 сезон

RePack

30

ИГРА 18+

pack

ВАЖНО

!!Акция!!

Alien_RageХит недели

RePack

MK11
pack

Забери бонус

RePack

jed

!!Акция!!

Alien_Rage

RePack

fifa19

RePack

Assassins Creed: Odyssey

RePack

NEED FOR SPEED™ PAYBACK

4 сезон

9 сезон

Бесстыжие 9 сезон

Все сериалы

все сериалы на PB.wtf

RePack

FAR CRY 5
  

Высокие ставки. Реванш / Сезон: 2 / Серии: 1-16 из 16 (Максим Бриус) [2018, Криминал, драма, WEB-DL 1080p] pb.wtf

Высокие ставки. Реванш через торрент pb.wtf

Размер: 33.84 GB | Добавлен: 2 года 7 мес. назад | Торрент скачан:29 раз
Скачать  

21-03-2018 21:02 Высокие ставки. Реванш Скачать торрент  

Высокие ставки. Реванш
Год выпуска: 2018
Страна: Россия
Жанр: Криминал, драма
Продолжительность: ~ 00:45:00
Субтитры: отсутствуют

Режиссер: Максим Бриус



В ролях:

Алексей Нилов, Сергей Губанов, Максим Дахненко, Валентин Кузнецов (III), Нина Петровская, Екатерина Рокотова, Андрей Терентьев, Олег Метелев, Роман Павлушев, Александр Дергапутский, Мария Жиганова, Екатерина Полякова, Дмитрий Гудим, Андрей Чуманов, Артём Анчуков, Андрей Никитинских, Сергей Козырев, Александр Кратиров, Александр Кошкарев, Артем Хвостеев, Валерий Кувакин, Михаил Николаев, Алексей Осипов (IV), Владимир Роганов, Галина Сидорова, Антон Успенский

Описание:

В современном мире подпольного казино происходят серьезные перемены. На первый план выходят азартные онлайн-игры, привлекая наибольший ажиотаж и наибольшие ставки. Бандит старой закалки Юрий Сергеев сталкивается с молодой и расчетливой конкуренткой Глорией, которая намерена построить свою преступную бизнес-империю...

Качество: WEB-DL 1080p
Формат: MKV

Видео: 1920х1080 (16:9), 25 fps, AVC MPEG-4 (x264), High@L4.0 ~ 6000 kbps avg, 0.096 bit/pixel
Аудио: 48 kHz, AC3, 2 ch, 192 kbps avg
скриншот   скриншот   скриншот  

General
Unique ID : 183856645674006275996295283113558442051 (0x8A51807EFF297A25AA0287F2A0C28043)
Complete name : D:\Vysokie.stavki.Revansh.02.2017.WEB-DL.(1080p).Nikolspup\Vysokie.stavki.Revansh.02.(01.seriya).2017.WEB-DL.(1080p).Nikolspup.mkv
Format : Matroska
Format version : Version 4 / Version 2
File size : 2.08 GiB
Duration : 48mn 16s
Overall bit rate mode : Constant
Overall bit rate : 6 178 Kbps
Encoded date : UTC 2018-03-12 17:56:17
Writing application : mkvmerge v7.8.0 ('River Man') 32bit built on Mar 27 2015 16:18:02
Writing library : libebml v1.3.1 + libmatroska v1.4.2
DURATION : 00:48:16.160000000
NUMBER_OF_FRAMES : 90505
NUMBER_OF_BYTES : 69507840
_STATISTICS_WRITING_APP : mkvmerge v7.8.0 ('River Man') 32bit built on Mar 27 2015 16:18:02
_STATISTICS_WRITING_DATE_UTC : 2018-03-12 17:56:17
_STATISTICS_TAGS : BPS DURATION NUMBER_OF_FRAMES NUMBER_OF_BYTES

Video
ID : 1
Format : AVC
Format/Info : Advanced Video Codec
Format profile : High@L4.1
Format settings, CABAC : No
Format settings, ReFrames : 2 frames
Codec ID : V_MPEG4/ISO/AVC
Duration : 48mn 16s
Bit rate mode : Constant
Bit rate : 6 000 Kbps
Width : 1 920 pixels
Height : 1 080 pixels
Display aspect ratio : 16:9
Frame rate mode : Constant
Frame rate : 25.000 fps
Standard : PAL
Color space : YUV
Chroma subsampling : 4:2:0
Bit depth : 8 bits
Scan type : Progressive
Bits/(Pixel*Frame) : 0.116
Stream size : 1.98 GiB (95%)
Default : No
Forced : No
Color primaries : BT.709
Transfer characteristics : BT.709
Matrix coefficients : BT.709

Audio
ID : 2
Format : AC-3
Format/Info : Audio Coding 3
Mode extension : CM (complete main)
Format settings, Endianness : Big
Codec ID : A_AC3
Duration : 48mn 16s
Bit rate mode : Constant
Bit rate : 192 Kbps
Channel count : 2 channels
Channel positions : Front: L R
Sampling rate : 48.0 KHz
Bit depth : 16 bits
Compression mode : Lossy
Stream size : 66.3 MiB (3%)
Language : Russian
Default : Yes
Forced : Yes

pb.wtf



Скачать Высокие ставки. Реванш через торрент http://i99.fastpic.ru/big/2018/0312/e0/e1d2cc5e7839f79bf0b5015d92edf4e0.jpg Скачать фильм Высокие ставки. Реванш через торрент бесплантно в хорошем качестве Описание: В современном мире подпольного казино происходят серьезные перемены. На первый план выходят азартные онлайн-игры, привлекая ... 10 10 5
Торрент: Зарегистрирован [2018-03-21 21:02] · скачан: 29 раз
Статус: √ проверено
Размер: 33.84 GB
Как cкачать? Как скачать Высокие ставки. Реванш через торрент | qTorrent

% Раздел Тема Автор DL S | L
Наши сериалы [ 9.41 GB ] Высокие ставки. Реванш / Сезон: 2 / Серии: 1-16 из 16 [2018 WEBRip] bober100 Скачать
1 | 0
Наши сериалы [ 15.09 GB ] Высокие ставки. Реванш / Сезон: 2 / Серии: 1-16 из 16 [2018 WEBRip 720p] bober100 Скачать
1 | 0
Наши сериалы [ 36.5 GB ] Высокие ставки реванш / Сезон: 2 / Серии: 1-16 из 16 [2017 HDTV 1080p] [Русский] R.G.Generalfilm White Smoke Скачать
1 | 0

28-11-2019 20:33  

Отключить всю рекламу на сайте

    Дорогой пользователь! Огромная просьба, поблагодарите релизера, оцените раздачу и оставьте свои комментарий, если Вы скачали Высокие ставки. Реванш через торрент бесплатно! Внесите свою лепту в развитие PiratBit!
    Комментировать посты могут только пользователи прошедшие не сложную регистрацию
    Показать сообщения:    

    Высокие ставки. Реванш через торрент
    Скачать бесплатно Высокие ставки. Реванш
    Высокие ставки. Реванш скачать торрент
    Высокие ставки. Реванш смотреть онлайн
    Cкачать фильм Высокие ставки. Реванш бесплатно
    Высокие ставки. Реванш скачать торрент в хорошем качестве
    Высокие ставки. Реванш смотреть онлайн бесплатно в хорошем качестве


    Вы не можете начинать темы
    Вы не можете отвечать на сообщения
    Вы не можете редактировать свои сообщения
    Вы не можете удалять свои сообщения
    Вы не можете голосовать в опросах
    Вы не можете прикреплять файлы к сообщениям
    Вы можете скачивать файлы