Ссылка на приватное зеркало всего за 1$. Внимание количество ограничено!!!

OK

1+1

iTunes

мы

OK

1

WEB-DLRip

Джокер

Пифагор

Ведьмак / The Witcher сериал

Лицензия

ПШазам

ОК

Оно 2

iTunes

30
pack

Вам бонус

ВАЖНО

!!Акция!!

Alien_RageХит недели

RePack

Resident Evil 21

ИГРА 18+

pack

RePack

jed

!!Акция!!

Alien_Rage

RePack

fifa19

RePack

Assassins Creed: Odyssey

RePack

NEED FOR SPEED™ PAYBACK

4 сезон

9 сезон

Бесстыжие 9 сезон

Все сериалы

все сериалы на PB.wtf

RePack

FAR CRY 5
  

Ощущения / The Feels (Дженэ ЛаМарк) [2017, мелодрама, комедия, BDRip 720p] MVO ["Синема УС"] pb.wtf

Ощущения через торрент pb.wtf

Размер: 3.88 GB | Добавлен: 1 год 9 мес. назад | Торрент скачан:23 раза
Скачать  

22-03-2018 05:59 Ощущения Скачать торрент  

Ощущения / The FeelsГод выпуска: 2017
Страна: США
Жанр: мелодрама, комедия
Продолжительность: 01:30:01
Перевод: Любительский (многоголосый) | "Синема УС"
Субтитры: отсутствуют

Режиссер: Дженэ ЛаМарк

rating

В ролях:

Констанс Ву, Джош Фэйдем, Дженэ ЛаМарк, Лорен Паркс, Даг Парди, Карин Татоян, Анджела Тримбур, Фрэнки Васс, Луна Васс

Описание:

Лесбийский девичник катится коту под хвост, когда одна из невест признается в том, что она никогда не испытывала оргазма.

Качество: BDRip 720p
Формат: MKV

Видео: 5724 Kбит/с, 1280x694
Аудио#1: Русский, (AC3, 2 ch, 448 Кбит/с)
скриншот  скриншот  скриншот  

Общее
Уникальный идентификатор : 206369018874164410680437949963059974485 (0x9B413A309E4AA59A80119034AB75D155)
Полное имя : D:\The.Feels.2017.P.BDRip.72Op_KOSHARA.mkv
Формат : Matroska
Версия формата : Version 2
Размер файла : 3,88 Гбайт
Продолжительность : 1 ч. 30 м.
Режим общего битрейта : Переменный
Общий поток : 6173 Кбит/сек
Дата кодирования : UTC 2018-03-21 16:46:12
Программа кодирования : mkvmerge v8.3.0 ('Over the Horizon') 64bit
Библиотека кодирования : libebml v1.3.1 + libmatroska v1.4.2

Видео
Идентификатор : 1
Формат : AVC
Формат/Информация : Advanced Video Codec
Профиль формата : High@L4.1
Параметр CABAC формата : Да
Параметр RefFrames формата : 4 кадра
Идентификатор кодека : V_MPEG4/ISO/AVC
Продолжительность : 1 ч. 30 м.
Вид битрейта : Переменный
Битрейт : 5724 Кбит/сек
Максимальный битрейт : 6500 Кбит/сек
Ширина : 1280 пикселей
Высота : 694 пикселя
Соотношение сторон : 1,85:1
Режим частоты кадров : Постоянный
Частота кадров : 23,976 (24000/1001) кадра/сек
Стандарт вещания : Component
Цветовое пространство : YUV
Субдискретизация насыщенности : 4:2:0
Битовая глубина : 8 бит
Тип развёртки : Прогрессивная
Бит/(Пиксели*Кадры) : 0.263
Размер потока : 3,52 Гбайт (91%)
Default : Да
Forced : Нет
Цветовой диапазон : Limited
Основные цвета : BT.709
Характеристики трансфера : BT.709
Коэффициенты матрицы : BT.709

Аудио
Идентификатор : 2
Формат : AC-3
Формат/Информация : Audio Coding 3
Расширение режима : CM (complete main)
Параметр Endianness формата : Big
Идентификатор кодека : A_AC3
Продолжительность : 1 ч. 30 м.
Вид битрейта : Постоянный
Битрейт : 448 Кбит/сек
Каналы : 2 канала
Расположение каналов : Front: L R
Частота : 48,0 КГц
Частота кадров : 31,250 кадров/сек (1536 spf)
Метод сжатия : С потерями
Размер потока : 288 Мбайт (7%)
Default : Да
Forced : Нет

pb.wtf



Скачать Ощущения через торрент http://img12.lostpic.net/2018/03/22/b0d45bcaecf1d8073f8da2d61b249462.jpg Скачать фильм Ощущения через торрент бесплантно в хорошем качестве Описание: Лесбийский девичник катится коту под хвост, когда одна из невест признается в том, что она никогда не испытывала ... 7.3 10 7
Торрент: Зарегистрирован [2018-03-22 05:59] · скачан: 23 раз
Статус: # сомнительно
Размер: 3.88 GB
Как cкачать? Как скачать Ощущения через торрент | qTorrent

% Раздел Тема Автор DL S | L
T Фильмы (мультфильмы) cо спонсором показа (Новинки AVI/MKV) [ 1.37 GB ] Ощущения / The Feels [2017 HDRip] MVO ["Синема УС"] bober100 Скачать
1 | 0

28-11-2019 20:33  

Отключить всю рекламу на сайте

    Дорогой пользователь! Огромная просьба, поблагодарите релизера, оцените раздачу и оставьте свои комментарий, если Вы скачали Ощущения через торрент бесплатно! Внесите свою лепту в развитие PiratBit!
    Комментировать посты могут только пользователи прошедшие не сложную регистрацию
    Показать сообщения:    

    Ощущения через торрент
    Скачать бесплатно Ощущения
    Ощущения скачать торрент
    Ощущения смотреть онлайн
    Cкачать фильм Ощущения бесплатно
    Ощущения скачать торрент в хорошем качестве
    Ощущения смотреть онлайн бесплатно в хорошем качестве


    Вы не можете начинать темы
    Вы не можете отвечать на сообщения
    Вы не можете редактировать свои сообщения
    Вы не можете удалять свои сообщения
    Вы не можете голосовать в опросах
    Вы не можете прикреплять файлы к сообщениям
    Вы можете скачивать файлы