Ссылка на приватное зеркало нашего сайта всего за 1$. Внимание количество ограничено!!!

2 сезон

iTunes

1 сезон

1

2 сезон

2 сезон

iTunes

1 сезон

RePack

30

Ultimate

ВАЖНО

ИГРА 18+

pack

RePack

MK11
pack

Забери бонус

RePack

jed

!!Акция!!

Alien_Rage

RePack

fifa19

RePack

Assassins Creed: Odyssey

RePack

NEED FOR SPEED™ PAYBACK

4 сезон

9 сезон

Бесстыжие 9 сезон

Все сериалы

все сериалы на PB.wtf

RePack

FAR CRY 5
  

Night Demon - Darkness Remains - 2017/ FLAC/ image +.cue/ lossless/ Heavy Metal pb.wtf

Night Demon - Darkness Remains - 2017 через торрент pb.wtf

Размер: 307 MB | Добавлен: 2 года 8 мес. назад | Торрент скачан:14 раз
Скачать  

22-03-2018 10:36 Night Demon - Darkness Remains - 2017 Скачать торрент  


Night Demon - Darkness Remains


Год издания: 2017
Страна: United States (Ventura, California)
Жанр: Heavy Metal
Продолжительность: 00:37:54
Лейбл издания: Steamhammer/SPV GmbH
Страна-выпуска диска: Germany
Номер по каталогу: SPV 270502 CD
Формат: FLAC
Битрейт аудио: Lossless
Тип рипа: image +.cue
Наличие сканов в содержимом раздачи: да


01. Welcome To The Night (3:53)
02. Hallowed Ground (3:24)
03. Maiden Hell (2:46)
04. Stranger In The Room (4:11)
05. Life On The Run (3:37)
06. Dawn Rider (3:24)
07. Black Widow (3:28)
08. On Your Own (3:29)
09. Flight Of The Manticore (4:09)
10. Darkness Remains (5:32)

Код:

Exact Audio Copy V1.3 from 2. September 2016

EAC extraction logfile from 21. April 2017, 19:06

Night Demon / Darkness Remains

Used drive  : ATAPI   iHAS122   W   Adapter: 2  ID: 0

Read mode               : Secure
Utilize accurate stream : Yes
Defeat audio cache      : Yes
Make use of C2 pointers : No

Read offset correction                      : 48
Overread into Lead-In and Lead-Out          : No
Fill up missing offset samples with silence : Yes
Delete leading and trailing silent blocks   : No
Null samples used in CRC calculations       : Yes
Used interface                              : Installed external ASPI interface

Used output format              : User Defined Encoder
Selected bitrate                : 1024 kBit/s
Quality                         : High
Add ID3 tag                     : No
Command line compressor         : C:\Program Files\FLAC\flac.exe
Additional command line options : -V -8 -T "Date=%year%" -T "Genre=%genre%" -T"COMMENT=Ripped by  Ilijan - ilko" -8 -V %source%

TOC of the extracted CD

     Track |   Start  |  Length  | Start sector | End sector
    ---------------------------------------------------------
        1  |  0:00.00 |  3:53.37 |         0    |    17511
        2  |  3:53.37 |  3:24.26 |     17512    |    32837
        3  |  7:17.63 |  2:45.44 |     32838    |    45256
        4  | 10:03.32 |  4:11.25 |     45257    |    64106
        5  | 14:14.57 |  3:36.44 |     64107    |    80350
        6  | 17:51.26 |  3:24.30 |     80351    |    95680
        7  | 21:15.56 |  3:28.05 |     95681    |   111285
        8  | 24:43.61 |  3:29.24 |    111286    |   126984
        9  | 28:13.10 |  4:08.65 |    126985    |   145649
       10  | 32:22.00 |  5:31.43 |    145650    |   170517

Range status and errors

Selected range

     Filename D:\ilko\Night Demon - Darkness Remains.wav

     Peak level 100.0 %
     Extraction speed 3.7 X
     Range quality 100.0 %
     Test CRC 4141CAE8
     Copy CRC 4141CAE8
     Copy OK

No errors occurred

AccurateRip summary

Track  1  not present in database
Track  2  not present in database
Track  3  not present in database
Track  4  not present in database
Track  5  not present in database
Track  6  not present in database
Track  7  not present in database
Track  8  not present in database
Track  9  not present in database
Track 10  not present in database

None of the tracks are present in the AccurateRip database

End of status report

Код:

REM GENRE "Heavy Metal"
REM DATE 2017
REM DISCID 8F08E10A
REM COMMENT "ExactAudioCopy v1.3"
PERFORMER "Night Demon"
TITLE "Darkness Remains"
FILE "Night Demon - Darkness Remains.flac" WAVE
  TRACK 01 AUDIO
    TITLE "Welcome To The Night"
    PERFORMER "Night Demon"
    INDEX 01 00:00:00
  TRACK 02 AUDIO
    TITLE "Hallowed Ground"
    PERFORMER "Night Demon"
    INDEX 00 03:51:38
    INDEX 01 03:53:37
  TRACK 03 AUDIO
    TITLE "Maiden Hell"
    PERFORMER "Night Demon"
    INDEX 00 07:15:64
    INDEX 01 07:17:63
  TRACK 04 AUDIO
    TITLE "Stranger In The Room"
    PERFORMER "Night Demon"
    INDEX 00 10:01:33
    INDEX 01 10:03:32
  TRACK 05 AUDIO
    TITLE "Life On The Run"
    PERFORMER "Night Demon"
    INDEX 00 14:12:58
    INDEX 01 14:14:57
  TRACK 06 AUDIO
    TITLE "Dawn Rider"
    PERFORMER "Night Demon"
    INDEX 00 17:49:27
    INDEX 01 17:51:26
  TRACK 07 AUDIO
    TITLE "Black Widow"
    PERFORMER "Night Demon"
    INDEX 00 21:13:57
    INDEX 01 21:15:56
  TRACK 08 AUDIO
    TITLE "On Your Own"
    PERFORMER "Night Demon"
    INDEX 00 24:41:62
    INDEX 01 24:43:61
  TRACK 09 AUDIO
    TITLE "Flight Of The Manticore"
    PERFORMER "Night Demon"
    INDEX 00 28:11:11
    INDEX 01 28:13:10
  TRACK 10 AUDIO
    TITLE "Darkness Remains"
    PERFORMER "Night Demon"
    INDEX 00 32:19:14
    INDEX 01 32:22:00




pb.wtf



Скачать Night Demon - Darkness Remains - 2017 через торрент http://i103.fastpic.ru/big/2018/0321/d9/f3345ebcd9221a5ac78c63499fca14d9.png Скачать фильм Night Demon - Darkness Remains - 2017через торрент бесплантно в хорошем качестве Трэклист Welcome To The Night (3:53) Hallowed Ground (3:24) Maiden Hell (2:46) Stranger In The Room (4:11) ... 10 10 1
Торрент: Зарегистрирован [2018-03-22 10:36] · скачан: 14 раз
Статус: √ проверено
Размер: 307 MB
Как cкачать? Как скачать Night Demon - Darkness Remains - 2017 через торрент | qTorrent

28-11-2019 20:33  

Отключить всю рекламу на сайте

22-03-2018 12:01 Night Demon - Darkness Remains - 2017 Скачать торрент  

Зачетная группаpb.wtf



    Дорогой пользователь! Огромная просьба, поблагодарите релизера, оцените раздачу и оставьте свои комментарий, если Вы скачали Night Demon - Darkness Remains - 2017 через торрент бесплатно! Внесите свою лепту в развитие PiratBit!
    Комментировать посты могут только пользователи прошедшие не сложную регистрацию
    Показать сообщения:    

    Night Demon - Darkness Remains - 2017 через торрент
    Скачать бесплатно Night Demon - Darkness Remains - 2017
    Night Demon - Darkness Remains - 2017 скачать торрент
    Night Demon - Darkness Remains - 2017 смотреть онлайн
    Cкачать фильм Night Demon - Darkness Remains - 2017 бесплатно
    Night Demon - Darkness Remains - 2017 скачать торрент в хорошем качестве
    Night Demon - Darkness Remains - 2017 смотреть онлайн бесплатно в хорошем качестве


    Вы не можете начинать темы
    Вы не можете отвечать на сообщения
    Вы не можете редактировать свои сообщения
    Вы не можете удалять свои сообщения
    Вы не можете голосовать в опросах
    Вы не можете прикреплять файлы к сообщениям
    Вы можете скачивать файлы