новый адрес
Ссылка на приватное зеркало всего за 1$. Внимание количество ограничено!!!

iTunes

1+1

iTunes

мы

iTunes

1

iTunes

Чернобыль

iTunes

Ральф против интернета

Лицензия

ПШазам

Лицензия

Оно 2

Лицензия

30
pack

Вам бонус

ВАЖНО

!!Акция!!

Alien_RageХит недели

RePack

Resident Evil 21

ИГРА 18+

pack

RePack

jed

!!Акция!!

Alien_Rage

RePack

fifa19

RePack

Assassins Creed: Odyssey

RePack

NEED FOR SPEED™ PAYBACK

3 сезон

9 сезон

Бесстыжие 9 сезон

Все сериалы

все сериалы на PB.wtf

RePack

FAR CRY 5
Ребята, катастрофически не хватает 1900р. для оплаты серверов за Октябрь (всвязи с блокировками трафик упал в 3 раза), 1-2р., выручайте.
  

Царь обезьян: Царство женщин / Xiyou ji nuer guo (Чин Поу-Сои) [2018 г., Боевик, приключения, фентези, WEB-DL 720p, Любительский (многоголосый)(Колобок) ] pb.wtf

Царь обезьян: Царство женщин через торрент pb.wtf

Размер: 3.68 GB | Добавлен: 1 год 7 мес. назад | Торрент скачан:251 раз
Скачать  

22-03-2018 11:32 Царь обезьян: Царство женщин Скачать торрент  

Царь обезьян: Царство женщин / Xiyou ji nuer guo
Год выпуска: 2018
Страна: Китай, Гонконг
Жанр: Боевик, приключения, фентези
Продолжительность: 01:53:26
Перевод: Любительский (многоголосый)(Колобок)
Субтитры: Отсутствуют

Режиссер: Чин Поу-Сои

rating

В ролях: Аарон Квок, Уилльям Фэн, Чжао Лиин, Ло Чун-Хим, Сяо Шэньян, Сунь Ихань

Описание: Путешествие героев приводит их в страну, где живут только женщины. Пророчество гласит, что пришедшие мужчины принесут стране разрушение, поэтому местная правительница приказывает казнить чужаков. Но на её дочь уже начал действовать любовный яд, и та спасает пленников.

Доп. информация: Присутствуют вставки текстовой рекламы!

Качество: WEB-DL 720p
Формат: MKV
Видео кодек: H.264
Аудио кодек: AC3
Видео: AVC, 1280x674, 4 360 Kbps
Аудио#1: AC-3, 48.0 KHz, 2 ch, 192 Kbps
скриншот   скриншот   скриншот   скриншот  

Общее
Полное имя : E:\NNM\Царь обезьян\The Monkey King 3 Kingdom of Women 2018 WEB-DLRip 720p-LQ.mkv
Формат : Matroska
Версия формата : Version 2
Размер файла : 3,68 Гбайт
Продолжительность : 1 ч. 53 м.
Режим общего битрейта : Переменный
Общий поток : 4645 Кбит/сек
Программа кодирования : libmatroska 1.4.1

Видео
Идентификатор : 1
Формат : AVC
Формат/Информация : Advanced Video Codec
Профиль формата : High@L4.1
Настройки формата : CABAC / 4 Ref Frames
Параметр CABAC формата : Да
Параметр RefFrames формата : 4 кадра
Идентификатор кодека : V_MPEG4/ISO/AVC
Продолжительность : 1 ч. 53 м.
Вид битрейта : Переменный
Битрейт : 4360 Кбит/сек
Максимальный битрейт : 5000 Кбит/сек
Ширина : 1280 пикселей
Высота : 674 пикселя
Соотношение сторон : 1,899
Режим частоты кадров : Постоянный
Частота кадров : 23,976 (24000/1001) кадра/сек
Стандарт вещания : Component
Цветовое пространство : YUV
Субдискретизация насыщенности : 4:2:0
Битовая глубина : 8 бит
Тип развёртки : Прогрессивная
Бит/(Пиксели*Кадры) : 0.211
Размер потока : 3,45 Гбайт (94%)
Default : Нет
Forced : Нет
Цветовой диапазон : Limited
Основные цвета : BT.709
Характеристики трансфера : BT.709
Коэффициенты матрицы : BT.709

Аудио
Идентификатор : 2
Формат : AC-3
Формат/Информация : Audio Coding 3
Идентификатор кодека : A_AC3
Продолжительность : 1 ч. 53 м.
Вид битрейта : Постоянный
Битрейт : 192 Кбит/сек
Каналы : 2 канала
Расположение каналов : Front: L R
Частота : 48,0 КГц
Частота кадров : 31,250 кадров/сек (1536 SPF)
Битовая глубина : 16 бит
Метод сжатия : С потерями
Размер потока : 156 Мбайт (4%)
ServiceKind/String : Complete Main
Default : Нет
Forced : Нет

pb.wtf



Скачать Царь обезьян: Царство женщин через торрент http://i102.fastpic.ru/big/2018/0322/fa/f13f596947084ae9d1fcdf75423a03fa.jpg Скачать фильм Царь обезьян: Царство женщин через торрент бесплантно в хорошем качестве Описание: Путешествие героев приводит их в страну, где живут только женщины. Пророчество гласит, что пришедшие мужчины принесут стране ... 9.3 10 7
Торрент: Зарегистрирован [2018-03-22 11:32] · скачан: 251 раз
Статус: T временная
Размер: 3.68 GB
Как cкачать? Как скачать Царь обезьян: Царство женщин через торрент | qTorrent


>> Переходим по ссылке <<
Автоматически подгузится скрипт который настроит ваш браузер на выигрыш!!
После настройки браузера вероятность выигрыша увеличется в 4.1-4,6 раза.
В течение 6 секунд вам откроется настроенный интерфейс казино, с повышенной вероятностью выигрыша.






Отзывы и комментарии о схеме читаем и пишем здесь: ---> Отзывы и комментарии о схеме

Новые благодарочки в телеграм довольных пользователей:
скриншот   скриншот   скриншот   скриншот   скриншот

24-03-2018 03:38 Царь обезьян: Царство женщин Скачать торрент  

Топик был перенесен из форума Азиатские фильмы в форум Фильмы с рекламой (Новинки AVI/MKV)


Enigma2010pb.wtf



24-03-2018 19:53 Царь обезьян: Царство женщин Скачать торрент  

перевод г Авно.и китай шайтан титры не откл.pb.wtf



25-03-2018 10:38 Царь обезьян: Царство женщин Скачать торрент  

обезьянки
свинтусы
и прочееpb.wtf



26-03-2018 09:09 Царь обезьян: Царство женщин Скачать торрент  

Детям можно показывать?pb.wtf



    Дорогой пользователь! Огромная просьба, поблагодарите релизера, оцените раздачу и оставьте свои комментарий, если Вы скачали Царь обезьян: Царство женщин через торрент бесплатно! Внесите свою лепту в развитие PiratBit!
    Комментировать посты могут только пользователи прошедшие не сложную регистрацию
    Показать сообщения:    

    Царь обезьян: Царство женщин через торрент
    Скачать бесплатно Царь обезьян: Царство женщин
    Царь обезьян: Царство женщин скачать торрент
    Царь обезьян: Царство женщин смотреть онлайн
    Cкачать фильм Царь обезьян: Царство женщин бесплатно
    Царь обезьян: Царство женщин скачать торрент в хорошем качестве
    Царь обезьян: Царство женщин смотреть онлайн бесплатно в хорошем качестве


    Вы не можете начинать темы
    Вы не можете отвечать на сообщения
    Вы не можете редактировать свои сообщения
    Вы не можете удалять свои сообщения
    Вы не можете голосовать в опросах
    Вы не можете прикреплять файлы к сообщениям
    Вы можете скачивать файлы