новый адрес
Мега распродажа FORZA HORIZON 4 ULTIMATE+ВСЕ DLC+ОНЛАЙН всего за 499р. 349 руб. (супер цена). Внимание количество ограничено!!!

iTunes

1+1

iTunes

мы

iTunes

1

iTunes

Чернобыль

iTunes

Ральф против интернета

Лицензия

ПШазам

Лицензия

Оно 2

Лицензия

30
pack

ВАЖНО

!!Акция!!

Alien_RageХит недели

RePack

Resident Evil 21

ИГРА 18+

pack

RePack

jed

!!Акция!!

Alien_Rage

RePack

fifa19

RePack

Assassins Creed: Odyssey

RePack

NEED FOR SPEED™ PAYBACK

3 сезон

9 сезон

Бесстыжие 9 сезон

Все сериалы

все сериалы на PB.wtf

RePack

FAR CRY 5
Ребята, катастрофически не хватает 1900р. для оплаты серверов за Октябрь (всвязи с блокировками трафик упал в 3 раза), 1-2р., выручайте.
  

Переворот по инструкции 107 (Захид Сабитов, Георгий Бзаров) [1982, детектив, драма, шпионский фильм, VHSRip] pb.wtf

Переворот по инструкции 107 через торрент pb.wtf

Размер: 2.68 GB | Добавлен: 1 год 7 мес. назад | Торрент скачан:10 раз
Скачать  

22-03-2018 13:02 Переворот по инструкции 107 Скачать торрент  

Переворот по инструкции 107 Жанр: детектив, драма, шпионский фильм
Год выпуска: 1982
Продолжительность: 01:25:25
Язык: русский

Режиссёр: Захид Сабитов, Георгий Бзаров

В ролях: Леонид Сенченко, Сайрам Исаева, Улугбек Хамраев, Наби Рахимов, Сергей Пижель, Рустам Сагдуллаев, Георгий Шевцов, Мурад Раджабов, Эдуард Марцевич, Антра Лиедскалныня, Исамат Эргашев

Описание: В одной из стран мусульманского Востока, богатой нефтью, к власти приходят демократические силы. Не желая терять контроль над черным золотом, одна из западных стран совершает здесь переворот, пытаясь представить его, как "освобождение от власти Кремля". Разрабатывается план, жертвами которого становятся прогрессивный журналист Хайдар и советский врач Халима Атаджанова, работающая в местном госпитале Красного Креста. Власти объявляют Хайдара агентом Москвы, а Халиму - резидентом советской разведки. Журналисту удается скрыться, Халима попадает в руки контрреволюционеров. Чтобы добиться от женщины признания в шпионской деятельности, начинается охота за ее 12-летним сыном Искандером. Но сотрудники госпиталя и местные жители, не верящие в выдумку о Халиме, прячут мальчика, а потом переправляют в советское посольство. Искандер рассказывает всю правду о своей матери, и власти вынуждены освободить ее...



Релиз:

Благодарность: за редкий фильм NickK88442200 / Antonello500

Качество видео: VHSRip
Формат видео: MPG
Видео: MPEG2 Video 720x576 (4:3) 25fps, 4 179 kb/s
Аудио: MPEG Audio 48000Hz stereo 224kbps
Сценаристы: Анатолий Галиев, Эдуард Тропинин
Оператор: Леонид Травицкий
Композитор: Румиль Вильданов
Художники: Вениамин Мякотных, Рафаэль Сулейманов
Производство: Узбекфильм
Премьера: 2 июля 1983 (Москва)

НАГРАДЫ, НОМИНАЦИИ, ФЕСТИВАЛИ
На XVI Всесоюзном кинофестивале в Ленинграде (1983 г.) диплом за лучшее раскрытие темы защиты детства.
General
Complete name : D:\Новая земля 2\Художественные фильмы\Переворот по инструкции 107 (1982)\Переворот по инструкции 107 (1982).mpg
Format : MPEG-PS
File size : 2.68 GiB
Duration : 1 h 25 min
Overall bit rate mode : Variable
Overall bit rate : 4 493 kb/s

Video
ID : 224 (0xE0)
Format : MPEG Video
Format version : Version 2
Format profile : Main@Main
Format settings, BVOP : Yes
Format settings, Matrix : Default
Format settings, GOP : M=3, N=12
Duration : 1 h 25 min
Bit rate mode : Variable
Bit rate : 4 179 kb/s
Maximum bit rate : 6 000 kb/s
Width : 720 pixels
Height : 576 pixels
Display aspect ratio : 4:3
Frame rate : 25.000 FPS
Standard : PAL
Color space : YUV
Chroma subsampling : 4:2:0
Bit depth : 8 bits
Scan type : Progressive
Compression mode : Lossy
Bits/(Pixel*Frame) : 0.403
Time code of first frame : 00:00:00:00
Time code source : Group of pictures header
GOP, Open/Closed : Open
GOP, Open/Closed of first fram : Closed
Stream size : 2.49 GiB (93%)

Audio
ID : 192 (0xC0)
Format : MPEG Audio
Format version : Version 1
Format profile : Layer 2
Duration : 1 h 25 min
Bit rate mode : Constant
Bit rate : 224 kb/s
Channel(s) : 2 channels
Sampling rate : 48.0 kHz
Compression mode : Lossy
Delay relative to video : 16 ms
Stream size : 137 MiB (5%)
скриншот  скриншот  скриншот  скриншот  скриншот  
pb.wtf



Скачать Переворот по инструкции 107 через торрент http://i100.fastpic.ru/big/2018/0321/9b/f2494dd81b3d5f17ebaada0c9bba499b.jpg Скачать фильм Переворот по инструкции 107 через торрент бесплантно в хорошем качестве Описание: В одной из стран мусульманского Востока, богатой нефтью, к власти приходят демократические силы. Не желая терять контроль над ... 5 10 1
Торрент: Зарегистрирован [2018-03-22 13:02] · скачан: 10 раз
Статус: √ проверено
Размер: 2.68 GB
Как cкачать? Как скачать Переворот по инструкции 107 через торрент | qTorrent


>> Регистрируемся здесь <<






Отзывы и комментарии о схеме читаем и пишем здесь: ---> Отзывы и комментарии о схеме

Новые благодарочки в телеграм довольных пользователей:
скриншот   скриншот   скриншот   скриншот   скриншот
    Дорогой пользователь! Огромная просьба, поблагодарите релизера, оцените раздачу и оставьте свои комментарий, если Вы скачали Переворот по инструкции 107 через торрент бесплатно! Внесите свою лепту в развитие PiratBit!
    Комментировать посты могут только пользователи прошедшие не сложную регистрацию
    Показать сообщения:    

    Переворот по инструкции 107 через торрент
    Скачать бесплатно Переворот по инструкции 107
    Переворот по инструкции 107 скачать торрент
    Переворот по инструкции 107 смотреть онлайн
    Cкачать фильм Переворот по инструкции 107 бесплатно
    Переворот по инструкции 107 скачать торрент в хорошем качестве
    Переворот по инструкции 107 смотреть онлайн бесплатно в хорошем качестве


    Вы не можете начинать темы
    Вы не можете отвечать на сообщения
    Вы не можете редактировать свои сообщения
    Вы не можете удалять свои сообщения
    Вы не можете голосовать в опросах
    Вы не можете прикреплять файлы к сообщениям
    Вы можете скачивать файлы