Всегда рабочее зеркало без VPN и Proxy просто перед .vidak.icu напиши любое слово или цифру, Пример http://ih28.vidak.icu

MVO

MVO

1 сезон

1

1 сезон

iTunes

1 сезон

13

1 сезон

Deluxe

pack

Рекомендуем

Repack

30

ВАЖНО

RePack

MK11

RePack

jed

RePack

fifa19

RePack

RDR2

RePack

NEED FOR SPEED™ PAYBACK

Кинопоиск HD

6 сезон

 Острые козырьки 6 сезон

Все сериалы

все сериалы на PB.wtf

RePack

FAR CRY 5
  
Magnet ссылка

Призрак в доспехах / Kôkaku Kidôtai / Ghost in the Shell (Мамору Осии / Mamoru Oshii) [1995, аниме, мультфильм, фантастика, BDRip-AVC] [Dub, DVO, AVO] pb.wtf

Призрак в доспехах через торрент pb.wtf

Раздают: 1 [ 54 KB/s ]
Размер: 2.41 GB | Добавлен: 4 года 4 мес. назад | Торрент скачан:107 раз
Смотреть онлайн Призрак в доспехах | Скачать    Ребята, помогите собрать деньги на оплату серверов!!!

22-03-2018 15:23 Призрак в доспехах Скачать торрент  

Призрак в доспехах
Kôkaku Kidôtai / Ghost in the Shell

«It found a voice... now it needs a body»


Страна: Япония, Великобритания
Жанр: аниме, мультфильм, фантастика, фэнтези, боевик, триллер

Год выпуска: 1995
Продолжительность: 01:22:40

Перевод #1: Профессиональный (полное дублирование) [AB-Video по заказу Первого канала / ОРТ]
Перевод #2: Профессиональный (двухголосый, закадровый) [Пётр Гланц и Инна Королёва]
Перевод #3: Профессиональный (двухголосый, закадровый) [Tycoon-Studio]
Перевод #4: Авторский (одноголосый, закадровый) [Андрей Гаврилов]
Субтитры: русские (полные x3), английские (полные)
Оригинальная аудиодорожка: японский

Режиссер: Мамору Осии / Mamoru Oshii

В ролях: Ацуко Танака, Акио Оцука, Коити Ямадэра, Ютака Накано, Тамио Оки, Тэссё Гэнда, Намаки Масакадзу, Масато Яманоути, Синдзи Огава, Мицуру Миямото, Кадзухиро Ямадзи, Сигэру Тиба

Описание:
2029 год. Границы между государствами окончательно рухнули, благодаря повсеместно распространившимся компьютерным сетям и кибер-технологиям. Когда давно разыскиваемый хакер по кличке Кукловод начинает вмешиваться в политику, 9-й Отдел Министерства Общественной безопасности, группа кибернетически модифицированных полицейских, получает задание найти и остановить хакера. Но в ходе расследования возникает вопрос: кто же такой Кукловод в том мире где грань между человеком и машиной практически стерта?



Релиз:

Автор рипа: stalkerok | Моя группа

Сэмпл

Качество видео: BDRip-AVC [Исходник: BDRemux @ TolstiyMob / rutrackеr]
Формат видео: MKV
Видео кодек: AVC
Аудио кодек: AC3
Видео: AVC, 3176 Кбит/сек, 1140x616 (1.85:1), 23,976 кадр/сек
Аудио #1: AC3, 192 Кбит/сек, 48 КГц, 2.0 - русский | Дубляж
Аудио #2: AC3, 192 Кбит/сек, 48 КГц, 2.0 - русский | П. Гланц и И. Королёва
Аудио #3: AC3, 192 Кбит/сек, 48 КГц, 2.0 - русский | Tycoon-Studio | отдельно
Аудио #4: AC3, 224 Кбит/сек, 48 КГц, 2.0 - русский | А. Гаврилов | отдельно
Аудио #5: AC3, 192 Кбит/сек, 48 КГц, 2.0 - японский
Навигация по главам: есть

---[Information] [19.03.2018 23:18:48] x264 [info]: frame I:756 Avg QP:19.53 size: 76627
---[Information] [19.03.2018 23:18:48] x264 [info]: frame P:19728 Avg QP:21.43 size: 29609
---[Information] [19.03.2018 23:18:48] x264 [info]: frame B:98436 Avg QP:22.03 size: 13484

Общее
Уникальный идентификатор : 227424776080386452577083776666471473532 (0xAB186B2BA7C538DFAE7351DFCA63A17C)
Полное имя : M:\!!!!!!Rips\Ghost in the Shel 1995\Ghost.in.the.Shell.1995.BDRip-AVC.stalkerok.new-team\Ghost.in.the.Shell.1995.BDRip-AVC.stalkerok.new-team.mkv
Формат : Matroska
Версия формата : Version 4 / Version 2
Размер файла : 2,17 Гбайт
Продолжительность : 1 ч. 22 м.
Общий поток : 3755 Кбит/сек
Название фильма : Kôkaku Kidôtai / Ghost in the Shell (1995) (Rip by stalkerok)
Дата кодирования : UTC 2018-03-21 12:04:55
Программа кодирования : mkvmerge v8.6.1 ('Flying') 64bit
Библиотека кодирования : libebml v1.3.3 + libmatroska v1.4.4

Видео
Идентификатор : 1
Формат : AVC
Формат/Информация : Advanced Video Codec
Профиль формата : [email protected]
Параметр CABAC формата : Да
Параметр ReFrames формата : 11 кадров
Идентификатор кодека : V_MPEG4/ISO/AVC
Продолжительность : 1 ч. 22 м.
Битрейт : 3176 Кбит/сек
Ширина : 1140 пикселей
Высота : 616 пикселей
Соотношение сторон : 1,85:1
Режим частоты кадров : Постоянный
Частота кадров : 23,976 (24000/1001) кадра/сек
Цветовое пространство : YUV
Субдискретизация насыщенности : 4:2:0
Битовая глубина : 8 бит
Тип развёртки : Прогрессивная
Бит/(Пиксели*Кадры) : 0.189
Размер потока : 1,83 Гбайт (85%)
Заголовок : Kôkaku Kidôtai / Ghost in the Shell (1995) (Rip by stalkerok)
Библиотека кодирования : x264 core 155 r2901 7d0ff22
Настройки программы : cabac=1 / ref=11 / deblock=1:-1:-1 / analyse=0x3:0x133 / me=umh / subme=11 / psy=1 / psy_rd=1.00:0.00 / mixed_ref=1 / me_range=32 / chroma_me=1 / trellis=2 / 8x8dct=1 / cqm=0 / deadzone=21,11 / fast_pskip=0 / chroma_qp_offset=-2 / threads=12 / lookahead_threads=3 / sliced_threads=0 / nr=0 / decimate=1 / interlaced=0 / bluray_compat=0 / constrained_intra=0 / bframes=14 / b_pyramid=2 / b_adapt=2 / b_bias=0 / direct=3 / weightb=1 / open_gop=0 / weightp=2 / keyint=240 / keyint_min=23 / scenecut=40 / intra_refresh=0 / rc_lookahead=60 / rc=crf / mbtree=0 / crf=20.0 / qcomp=0.65 / qpmin=0 / qpmax=69 / qpstep=4 / vbv_maxrate=50000 / vbv_bufsize=62500 / crf_max=0.0 / nal_hrd=none / filler=0 / ip_ratio=1.40 / pb_ratio=1.30 / aq=3:0.85 / zones=112156,118919,q=34
Default : Да
Forced : Нет

Аудио #1
Идентификатор : 2
Формат : AC-3
Формат/Информация : Audio Coding 3
Расширение режима : CM (complete main)
Параметр Endianness формата : Big
Идентификатор кодека : A_AC3
Продолжительность : 1 ч. 22 м.
Вид битрейта : Постоянный
Битрейт : 192 Кбит/сек
Каналы : 2 канала
Расположение каналов : Front: L R
Частота : 48,0 КГц
Частота кадров : 31,250 кадров/сек (1536 spf)
Метод сжатия : С потерями
Размер потока : 114 Мбайт (5%)
Заголовок : Дубляж (звук от Hanway)
Язык : Russian
Default : Да
Forced : Нет

Аудио #2
Идентификатор : 3
Формат : AC-3
Формат/Информация : Audio Coding 3
Расширение режима : CM (complete main)
Параметр Endianness формата : Big
Идентификатор кодека : A_AC3
Продолжительность : 1 ч. 22 м.
Вид битрейта : Постоянный
Битрейт : 192 Кбит/сек
Каналы : 2 канала
Расположение каналов : Front: L R
Частота : 48,0 КГц
Частота кадров : 31,250 кадров/сек (1536 spf)
Метод сжатия : С потерями
Размер потока : 114 Мбайт (5%)
Заголовок : Гланц и Королева
Язык : Russian
Default : Нет
Forced : Нет

Аудио #3
Идентификатор : 4
Формат : AC-3
Формат/Информация : Audio Coding 3
Расширение режима : CM (complete main)
Параметр Endianness формата : Big
Идентификатор кодека : A_AC3
Продолжительность : 1 ч. 22 м.
Вид битрейта : Постоянный
Битрейт : 192 Кбит/сек
Каналы : 2 канала
Расположение каналов : Front: L R
Частота : 48,0 КГц
Частота кадров : 31,250 кадров/сек (1536 spf)
Метод сжатия : С потерями
Размер потока : 114 Мбайт (5%)
Язык : Japanese
Default : Нет
Forced : Нет

Текст #1
Идентификатор : 5
Формат : ASS
Идентификатор кодека : S_TEXT/ASS
Идентификатор кодека/Информация : Advanced Sub Station Alpha
Продолжительность : 1 ч. 17 м.
Битрейт : 152 бит/сек
Count of elements : 811
Метод сжатия : Без потерь
Размер потока : 86,1 Кбайт (0%)
Заголовок : субтитры по дубляжу
Язык : Russian
Default : Нет
Forced : Нет

Текст #2
Идентификатор : 6
Формат : UTF-8
Идентификатор кодека : S_TEXT/UTF8
Идентификатор кодека/Информация : UTF-8 Plain Text
Продолжительность : 1 ч. 17 м.
Битрейт : 106 бит/сек
Count of elements : 790
Размер потока : 60,6 Кбайт (0%)
Заголовок : субтитры с "Мэйдж"
Язык : Russian
Default : Нет
Forced : Нет

Текст #3
Идентификатор : 7
Формат : ASS
Идентификатор кодека : S_TEXT/ASS
Идентификатор кодека/Информация : Advanced Sub Station Alpha
Продолжительность : 1 ч. 17 м.
Битрейт : 130 бит/сек
Count of elements : 563
Метод сжатия : Без потерь
Размер потока : 74,0 Кбайт (0%)
Заголовок : перевод Advokat
Язык : Russian
Default : Нет
Forced : Нет

Текст #4
Идентификатор : 8
Формат : ASS
Идентификатор кодека : S_TEXT/ASS
Идентификатор кодека/Информация : Advanced Sub Station Alpha
Продолжительность : 1 ч. 17 м.
Битрейт : 108 бит/сек
Count of elements : 810
Метод сжатия : Без потерь
Размер потока : 61,5 Кбайт (0%)
Заголовок : субтитры от OZC
Язык : English
Default : Нет
Forced : Нет

Меню
00:00:00.000 : :Dive-1
00:04:06.163 : :Opening
00:08:24.754 : :Ghost Hack
00:13:15.169 : :Hacker
00:24:17.706 : :Malles
00:26:05.063 : :Memories
00:27:40.158 : :Dive-2
00:33:02.981 : :Wander
00:36:21.513 : :Robot Body
00:45:32.271 : :Puppet Master
00:53:59.486 : :Chase
00:59:40.410 : :Dive-3
01:06:24.355 : :Dive-4
01:13:58.434 : :Re-incarnation
01:17:31.480 : :End title
скриншот   скриншот   скриншот   скриншот   скриншот   скриншот   скриншот  
pb.wtf



Скачать Призрак в доспехах через торрент http://i6.imageban.ru/out/2017/09/18/2ff75c0c358795c5946784cc1680714d.png Скачать, смотреть онлайн Призрак в доспехах бесплантно в хорошем качестве Описание:2029 год. Границы между государствами окончательно рухнули, благодаря повсеместно распространившимся компьютерным сетям и ... 10 10 2
Info! Золотая раздача, скачанное не засчитывается.
Торрент: Зарегистрирован [2018-03-22 15:23] · скачан: 107 раз
Статус: √ проверено
Размер: 2.41 GB
Как cкачать? Как скачать Призрак в доспехах через торрент | UTorrent

% Раздел Тема Автор DL S | L
Аниме [DVDrip, WEB-DLRip, HDrip] [ 747 MB ] Призрак в доспехах / Kôkaku Kidôtai / Ghost in the Shell [1995 аниме мультфильм BDRip-AVC] [Dub DVO] sokol_ok Скачать
2 | 0
Аниме [DVDrip, WEB-DLRip, HDrip] [ 1.48 GB ] Призрак в доспехах / Kôkaku Kidôtai / Ghost in the Shell [1995 аниме мультфильм BDRip-AVC] [Dub DVO] sokol_ok Скачать
2 | 0

28-11-2019 20:33  

Отключить вcю реклaмy на сайте

    Дорогой пользователь! Огромная просьба, поблагодарите релизера, оцените раздачу и оставьте свои комментарий, если Вы скачали Призрак в доспехах через торрент бесплатно!
    Комментировать посты могут только пользователи прошедшие не сложную регистрацию
    Показать сообщения:    

    Призрак в доспехах через торрент
    Скачать бесплатно Призрак в доспехах
    Призрак в доспехах скачать торрент
    Призрак в доспехах смотреть онлайн
    Cкачать фильм Призрак в доспехах бесплатно
    Призрак в доспехах скачать торрент в хорошем качестве
    Призрак в доспехах смотреть онлайн бесплатно в хорошем качестве


    Вы не можете начинать темы
    Вы не можете отвечать на сообщения
    Вы не можете редактировать свои сообщения
    Вы не можете удалять свои сообщения
    Вы не можете голосовать в опросах
    Вы не можете прикреплять файлы к сообщениям
    Вы можете скачивать файлы