Ссылка на приватное зеркало всего за 1$. Внимание количество ограничено!!!

OK

1+1

iTunes

мы

OK

1

WEB-DLRip

Джокер

Пифагор

Ведьмак / The Witcher сериал

iTunes

ПШазам

ОК

Оно 2

iTunes

30
pack

Вам бонус

ВАЖНО

!!Акция!!

Alien_RageХит недели

RePack

Resident Evil 21

ИГРА 18+

pack

RePack

jed

RePack

fifa19

RePack

Assassins Creed: Odyssey

RePack

NEED FOR SPEED™ PAYBACK

4 сезон

9 сезон

Бесстыжие 9 сезон

Все сериалы

все сериалы на PB.wtf

RePack

FAR CRY 5
  

Самый пьяный округ в мире / Lawless (Джон Хиллкоут / John Hillcoat) [2012, драма, криминал, BDRip-AVC] [International Cut] Dub [Лицензия] pb.wtf

Самый пьяный округ в мире через торрент pb.wtf

Раздают: 1 [ 0 KB/s ]
Размер: 1.43 GB | Добавлен: 1 год 10 мес. назад | Торрент скачан:170 раз
Скачать  

22-03-2018 16:38 Самый пьяный округ в мире Скачать торрент  

Самый пьяный округ в мире
Lawless

«Преступники станут легендой»

Международная версия / International Cut


Страна: США
Жанр: драма, криминал

Год выпуска: 2012
Продолжительность: 01:56:23

Перевод: Профессиональный (полное дублирование) [Blu-ray RUS]
Субтитры: русские (форсированные, полные), английские (полные)
Оригинальная аудиодорожка: нет

Режиссер: Джон Хиллкоут / John Hillcoat

В ролях: Шайа ЛаБаф, Том Харди, Джейсон Кларк, Джессика Честейн, Гай Пирс, Миа Васиковска, Дэйн ДеХаан, Гари Олдман, Крис МакГарри, Лью Темпл, Тим Толин, Маркус Хестер

Описание:
Действие в картине разворачивается на американском Юге во времена сухого закона и Великой Депрессии. В центре сюжета — семья Бондурант, три брата, Джек, Форрест и Говард, которые занимаются запрещенным в то время бизнесом, бутлегерством.
Оптимистично настроенный Джек, самый молодой из братьев, надеется с помощью бутлегерства заработать денег и произвести впечатление на свою девушку Берту. В это же время Форрест, напротив, настроен очень мрачно, он молчалив и подозрителен, а Говарду к тому же часто приходится иметь дело с врагами незаконного семейного бизнеса, в лице которых выступают коррумпированные местные полицейские.



Релиз:

Автор рипа: stalkerok | Моя группа

Сэмпл

Качество видео: BDRip-AVC [Исходник: BDRemux 1080p @ kingsize87 / rutrackеr]
Формат видео: MKV
Видео кодек: AVC
Аудио кодек: AC3
Видео: AVC, 1316 Кбит/сек, 964x402 (2.40:1), 23,976 кадр/сек
Аудио: AC3, 448 Кбит/сек, 48 КГц, 5.1 - русский
Навигация по главам: есть

---[Information] [20.03.2018 18:14:02] x264 [info]: frame I:1231 Avg QP:17.89 size: 55251
---[Information] [20.03.2018 18:14:02] x264 [info]: frame P:32720 Avg QP:20.04 size: 15648
---[Information] [20.03.2018 18:14:02] x264 [info]: frame B:133486 Avg QP:21.50 size: 4266

General
Unique ID : 239823439968018523938558365961172801326 (0xB46C507F2467D28BB0CBA12F99A7D72E)
Complete name : V:\!Rips\Lawless (2012)\Lawless.2012.BDRip-AVC.RUS.stalkerok.new-team.mkv
Format : Matroska
Format version : Version 4 / Version 2
File size : 1.43 GiB
Duration : 1 h 56 min
Overall bit rate : 1 762 kb/s
Movie name : Lawless (2012) (Rip by stalkerok)
Encoded date : UTC 2018-03-21 09:44:27
Writing application : mkvmerge v8.6.1 ('Flying') 64bit
Writing library : libebml v1.3.3 + libmatroska v1.4.4

Video
ID : 1
Format : AVC
Format/Info : Advanced Video Codec
Format profile : High@L4.1
Format settings, CABAC : Yes
Format settings, ReFrames : 14 frames
Codec ID : V_MPEG4/ISO/AVC
Duration : 1 h 56 min
Bit rate : 1 317 kb/s
Width : 964 pixels
Height : 402 pixels
Display aspect ratio : 2.40:1
Frame rate mode : Constant
Frame rate : 23.976 (24000/1001) FPS
Color space : YUV
Chroma subsampling : 4:2:0
Bit depth : 8 bits
Scan type : Progressive
Bits/(Pixel*Frame) : 0.142
Stream size : 1.07 GiB (75%)
Title : Lawless (2012) (Rip by stalkerok)
Writing library : x264 core 155 r2901 7d0ff22
Encoding settings : cabac=1 / ref=14 / deblock=1:-2:-1 / analyse=0x3:0x133 / me=umh / subme=11 / psy=1 / psy_rd=1.00:0.00 / mixed_ref=1 / me_range=32 / chroma_me=1 / trellis=2 / 8x8dct=1 / cqm=0 / deadzone=21,11 / fast_pskip=0 / chroma_qp_offset=-2 / threads=12 / lookahead_threads=3 / sliced_threads=0 / nr=0 / decimate=1 / interlaced=0 / bluray_compat=0 / constrained_intra=0 / bframes=15 / b_pyramid=2 / b_adapt=2 / b_bias=0 / direct=3 / weightb=1 / open_gop=0 / weightp=2 / keyint=240 / keyint_min=23 / scenecut=40 / intra_refresh=0 / rc_lookahead=60 / rc=crf / mbtree=0 / crf=19.8 / qcomp=0.65 / qpmin=0 / qpmax=69 / qpstep=4 / vbv_maxrate=50000 / vbv_bufsize=62500 / crf_max=0.0 / nal_hrd=none / filler=0 / ip_ratio=1.40 / pb_ratio=1.30 / aq=3:0.85 / zones=158126,167436,q=34
Default : Yes
Forced : No

Audio
ID : 2
Format : AC-3
Format/Info : Audio Coding 3
Mode extension : CM (complete main)
Format settings, Endianness : Big
Codec ID : A_AC3
Duration : 1 h 55 min
Bit rate mode : Constant
Bit rate : 448 kb/s
Channel(s) : 6 channels
Channel positions : Front: L C R, Side: L R, LFE
Sampling rate : 48.0 kHz
Frame rate : 31.250 FPS (1536 spf)
Compression mode : Lossy
Stream size : 369 MiB (25%)
Title : Dub
Language : Russian
Default : Yes
Forced : No

Text #1
ID : 3
Format : UTF-8
Codec ID : S_TEXT/UTF8
Codec ID/Info : UTF-8 Plain Text
Duration : 1 h 50 min
Bit rate : 0 b/s
Count of elements : 11
Stream size : 658 Bytes (0%)
Title : Forced
Language : Russian
Default : No
Forced : No

Text #2
ID : 4
Format : UTF-8
Codec ID : S_TEXT/UTF8
Codec ID/Info : UTF-8 Plain Text
Duration : 1 h 50 min
Bit rate : 64 b/s
Count of elements : 969
Stream size : 52.0 KiB (0%)
Language : Russian
Default : No
Forced : No

Text #3
ID : 5
Format : UTF-8
Codec ID : S_TEXT/UTF8
Codec ID/Info : UTF-8 Plain Text
Duration : 1 h 52 min
Bit rate : 46 b/s
Count of elements : 1128
Stream size : 38.4 KiB (0%)
Language : English
Default : No
Forced : No

Menu
00:00:00.000 : en:Chapter 1
00:04:36.818 : en:Chapter 2
00:09:16.639 : en:Chapter 3
00:14:39.587 : en:Chapter 4
00:21:55.689 : en:Chapter 5
00:26:34.343 : en:Chapter 6
00:34:23.895 : en:Chapter 7
00:41:06.964 : en:Chapter 8
00:48:30.825 : en:Chapter 9
00:56:45.652 : en:Chapter 10
01:05:11.074 : en:Chapter 11
01:11:21.903 : en:Chapter 12
01:19:30.724 : en:Chapter 13
01:25:00.887 : en:Chapter 14
01:31:49.838 : en:Chapter 15
01:37:32.889 : en:Chapter 16
01:44:44.737 : en:Chapter 17
01:49:07.708 : en:Chapter 18
скриншот   скриншот   скриншот   скриншот   скриншот   скриншот   скриншот  
pb.wtf



Скачать Самый пьяный округ в мире через торрент http://i6.imageban.ru/out/2017/09/18/2ff75c0c358795c5946784cc1680714d.png Скачать фильм Самый пьяный округ в мире через торрент бесплантно в хорошем качестве Описание:Действие в картине разворачивается на американском Юге во времена сухого закона и Великой Депрессии. В центре сюжета — семья ... 8.3 10 6
Info! Золотая раздача, скачанное не засчитывается.
Торрент: Зарегистрирован [2018-03-22 16:38] · скачан: 170 раз
Статус: √ проверено
Размер: 1.43 GB
Как cкачать? Как скачать Самый пьяный округ в мире через торрент | qTorrent

% Раздел Тема Автор DL S | L
Фильмы 2012 [ 744 MB ] Самый пьяный округ в мире / Lawless [2012 BDRip-AVC] [International Cut] sokol_ok Скачать
2 | 0
Фильмы 2012 [ 2.8 GB ] Самый пьяный округ в мире / Lawless [2012 BDRip-AVC] [International Cut] + AVO [Ю. Сербин] sokol_ok Скачать
3 | 0
Фильмы 2012 [ 1.45 GB ] Самый пьяный округ в мире / Lawless [2012 HDRip DUB лицензия] oleg8 Скачать
1 | 0
Фильмы [HD 720p, 1080p] (Хороший звук DUB, MVO) [ 13.12 GB ] Самый пьяный округ в мире / Lawless [2012 BDRip 1080p DUB + Оригинал] Dooo Скачать
1 | 1
Фильмы (DVD фильмы) [ 7.71 GB ] Самый пьяный округ в мире / Lawless [2012 DVD9] R5 voovaz Скачать
1 | 0
Фильмы [HD 720p, 1080p] (Хороший звук DUB, MVO) [ 15.58 GB ] Самый пьяный округ в мире / Lawless [2012 BDRip 1080p DUB| лицензия + Оригинал+Sub Rus.Eng] Trava-HD Скачать
1 | 1
Фильмы [HD 720p, 1080p] (Хороший звук DUB, MVO) [ 8.04 GB ] Самый пьяный округ в мире / Lawless [2012 BDRip 720p] лицензия diletant Скачать
1 | 1

28-11-2019 20:33  

Отключить всю рекламу на сайте

    Дорогой пользователь! Огромная просьба, поблагодарите релизера, оцените раздачу и оставьте свои комментарий, если Вы скачали Самый пьяный округ в мире через торрент бесплатно! Внесите свою лепту в развитие PiratBit!
    Комментировать посты могут только пользователи прошедшие не сложную регистрацию
    Показать сообщения:    

    Самый пьяный округ в мире через торрент
    Скачать бесплатно Самый пьяный округ в мире
    Самый пьяный округ в мире скачать торрент
    Самый пьяный округ в мире смотреть онлайн
    Cкачать фильм Самый пьяный округ в мире бесплатно
    Самый пьяный округ в мире скачать торрент в хорошем качестве
    Самый пьяный округ в мире смотреть онлайн бесплатно в хорошем качестве


    Вы не можете начинать темы
    Вы не можете отвечать на сообщения
    Вы не можете редактировать свои сообщения
    Вы не можете удалять свои сообщения
    Вы не можете голосовать в опросах
    Вы не можете прикреплять файлы к сообщениям
    Вы можете скачивать файлы