Ссылка на приватное зеркало нашего сайта всего за 1$. Внимание количество ограничено!!!

2 сезон

iTunes

1 сезон

1

iTunes

iTunes

iTunes

1 сезон

RePack

30

ИГРА 18+

pack

ВАЖНО

!!Акция!!

Alien_RageХит недели

RePack

MK11
pack

Забери бонус

RePack

jed

!!Акция!!

Alien_Rage

RePack

fifa19

RePack

Assassins Creed: Odyssey

RePack

NEED FOR SPEED™ PAYBACK

4 сезон

9 сезон

Бесстыжие 9 сезон

Все сериалы

все сериалы на PB.wtf

RePack

FAR CRY 5
  

Проклятие спящих / Серии 1-8 из 8 (Илья Куликов, Артём Аксененко) [2018 г., мистика, триллер, HDTVRip] pb.wtf

Проклятие спящих через торрент pb.wtf

Размер: 4.7 GB | Добавлен: 2 года 7 мес. назад | Торрент скачан:303 раза
Скачать  

22-03-2018 22:46 Проклятие спящих Скачать торрент  

Проклятие спящих / Серии 1-8 из 8
Год выпуска: 2018
Страна: Россия, НТВ
Жанр: мистика, триллер
Продолжительность: 8 х 00:45:00
Субтитры: нет

Режиссер: Илья Куликов, Артём Аксененко

В ролях: Евгений Стычкин, Александр Соколовский, Анастасия Заворотнюк, Юрий Чурсин, Анна Котова-Дерябина, Александр Сергеев (IV), Николай Лунин, Софья Каштанова, Сергей Журавлёв, Илья Сланевский, Виктория Фишер

Описание: Сюжет триллера завязан на необычных произведениях искусства. На каждой из картин изображен спящий человек, а в самом полотне заключена душа. Это проклятие пришло в современный мир от художника, любящего свою жену до безумия. Когда она умирала, мастер силой своих чувств заточил её душу в портрет. Эта легенда вдохновила бизнесмена Павла Воронова собрать коллекцию полотен со спящими героями. В этом ему помогают фотограф Костя и искусствовед Агнесса. За необычными картинами охотится и художник Алексей Тихонов, который мечтает продолжить дело мастера и научиться заключать души в портреты.

Качество: HDTVRip
Формат: AVI
Видео кодек: XviD
Аудио кодек: AC3
Видео: XviD, 1570 Kбит/с, 720х304
Аудио#1: АС3, 2 ch, 192 Кбит/с
скриншот   скриншот   скриншот   скриншот  

General
Complete name : H:\релизы.торрентфайл\Проклятие спящих.2017.HDTVRip.Files-x\01.Проклятие спящих.2017.HDTVRip.Files-x.avi
Format : AVI
Format/Info : Audio Video Interleave
File size : 601 MiB
Duration : 47mn 0s
Overall bit rate : 1 786 Kbps
Writing application : VirtualDubMod 1.5.10.3 | www.virtualdub-fr.org || (build 2550/release)
Writing library : VirtualDubMod build 2550/release

Video
ID : 0
Format : MPEG-4 Visual
Format profile : Advanced Simple@L5
Format settings, BVOP : 1
Format settings, QPel : No
Format settings, GMC : No warppoints
Format settings, Matrix : Custom
Codec ID : XVID
Codec ID/Hint : XviD
Duration : 47mn 0s
Bit rate : 1 584 Kbps
Width : 720 pixels
Height : 304 pixels
Display aspect ratio : 2.35:1
Frame rate : 25.000 fps
Color space : YUV
Chroma subsampling : 4:2:0
Bit depth : 8 bits
Scan type : Progressive
Compression mode : Lossy
Bits/(Pixel*Frame) : 0.290
Stream size : 533 MiB (89%)
Writing library : XviD 73

Audio
ID : 1
Format : AC-3
Format/Info : Audio Coding 3
Mode extension : CM (complete main)
Format settings, Endianness : Big
Codec ID : 2000
Duration : 47mn 0s
Bit rate mode : Constant
Bit rate : 192 Kbps
Channel(s) : 2 channels
Channel positions : Front: L R
Sampling rate : 48.0 KHz
Bit depth : 16 bits
Compression mode : Lossy
Stream size : 64.6 MiB (11%)
Alignment : Split accross interleaves
Interleave, duration : 40 ms (1.00 video frame)
Interleave, preload duration : 500 ms

Внимание! Раздача ведётся путём добавления новых серий; при каждом добавлении создётся новый торрент. Чтобы начать докачку новой серии, пользователям необходимо сделать следующее:
  • Остановить скачивание,
  • Удалить старый торрент у себя из клиента (старые серии удалять не надо),
  • Скачать новый торрент и запустить его у себя в клиенте вместо старого, при этом указать клиенту путь в старую папку куда и должно происходить скачивание новых серий.
Ваш клиент при этом должен произвести хеширование (проверку) старой папки (если не производит сам - помогите ему сделать это), и будет докачивать только те серии которых у вас ещё нет. Старые серии при этом не удаляются, а продолжают раздаваться!

Eсли вы уже удалили старые серии, то предотвратить повторную закачку старых серий можно, отжав галочку в соответсвующих местах при запуске нового торрента. По возможности, желательно не удалять старые серии как можно дольше чтобы релизёр не столько продолжал раздавать старые серии, а смог сконцентрироваться на новых.
pb.wtf



Скачать Проклятие спящих через торрент http://i103.fastpic.ru/big/2018/0323/1b/57347a967b0ad0fa2d47cb045317191b.jpg Скачать фильм Проклятие спящих через торрент бесплантно в хорошем качестве Описание: Сюжет триллера завязан на необычных произведениях искусства. На каждой из картин изображен спящий человек, а в самом полотне ... 10 10 7
Торрент: Зарегистрирован [2018-03-24 04:06] · скачан: 303 раз
Статус: √ проверено
Размер: 4.7 GB
Как cкачать? Как скачать Проклятие спящих через торрент | qTorrent

% Раздел Тема Автор DL S | L
Наши сериалы [ 4.71 GB ] Проклятие спящих / Серии: 1-8 из 8 [2017 SATRip-AVC] aleksan55 Скачать
1 | 0
Наши сериалы [ 5.25 GB ] Проклятие спящих / Сезон: 1 / Серии: 1-8 из 8 [2018 SATRip] bober100 Скачать
3 | 0


Последний раз редактировалось: oleg8 (2018-03-24 04:06), всего редактировалось 1 раз

28-11-2019 20:33  

Отключить всю рекламу на сайте

23-03-2018 12:10 Проклятие спящих Скачать торрент  

спят усталые игрушки )))pb.wtf



23-03-2018 14:27 Проклятие спящих Скачать торрент  

oleg8,

Цитата:

Если раздача ведется путем добавления новых серий. Добавляем инструкцию по обновлению торрента и докачке новых серий.

Сколько можно вам одно и тоже писать? Это когда-нибудь надоедает.pb.wtf



24-03-2018 04:16 Проклятие спящих Скачать торрент  

bober100 писал(а):

oleg8,

Цитата:

Если раздача ведется путем добавления новых серий. Добавляем инструкцию по обновлению торрента и докачке новых серий.

Сколько можно вам одно и тоже писать? Это когда-нибудь надоедает.

да поменяйте вы уже эти правила,любому(...) понятно уже ,что делать и что добавлятся серии будут,если написано 4 из 8.
добавил 5-8 серии.Сериал завершен.pb.wtf



24-03-2018 07:43 Проклятие спящих Скачать торрент  

Как фильм ?pb.wtf



21-05-2018 07:37 Проклятие спящих Скачать торрент  

Хороший интересный сериал!!!pb.wtf



    Дорогой пользователь! Огромная просьба, поблагодарите релизера, оцените раздачу и оставьте свои комментарий, если Вы скачали Проклятие спящих через торрент бесплатно! Внесите свою лепту в развитие PiratBit!
    Комментировать посты могут только пользователи прошедшие не сложную регистрацию
    Показать сообщения:    

    Проклятие спящих через торрент
    Скачать бесплатно Проклятие спящих
    Проклятие спящих скачать торрент
    Проклятие спящих смотреть онлайн
    Cкачать фильм Проклятие спящих бесплатно
    Проклятие спящих скачать торрент в хорошем качестве
    Проклятие спящих смотреть онлайн бесплатно в хорошем качестве


    Вы не можете начинать темы
    Вы не можете отвечать на сообщения
    Вы не можете редактировать свои сообщения
    Вы не можете удалять свои сообщения
    Вы не можете голосовать в опросах
    Вы не можете прикреплять файлы к сообщениям
    Вы можете скачивать файлы