Ссылка на приватное зеркало нашего сайта всего за 1$. Внимание количество ограничено!!!

2 сезон

iTunes

1 сезон

1

2 сезон

2 сезон

iTunes

1 сезон

RePack

30

Новинка

ВАЖНО

ИГРА 18+

pack

RePack

MK11
pack

Забери бонус

RePack

jed

!!Акция!!

Alien_Rage

RePack

fifa19

RePack

Assassins Creed: Odyssey

RePack

NEED FOR SPEED™ PAYBACK

4 сезон

9 сезон

Бесстыжие 9 сезон

Все сериалы

все сериалы на PB.wtf

RePack

FAR CRY 5
  

Криптон / Krypton / Сезон: 1 / Серии: 1-10 из 10 (Киаран Доннелли) [2018, Боевик, драма, научная фантастика, WEBRip 720p] MVO [Baibako] pb.wtf

Криптон через торрент pb.wtf

Размер: 15.95 GB | Добавлен: 2 года 4 мес. назад | Торрент скачан:24 раза
Скачать  

23-03-2018 04:33 Криптон Скачать торрент  

Криптон / Krypton
Год выпуска: 2018
Выпущено: США / DC Entertainment, Phantom Four, Warner Horizon Television
Жанр: Боевик, драма, научная фантастика
Продолжительность: 00:45:00
Перевод: Профессиональный многоголосый |
Субтитры: отсутствуют

Режиссер: Киаран Доннелли

rating

В ролях:

Камерон Каффе, Джорджина Кэмпбелл, Йен МакЭлхинни, Эллиот Кауэн, Энн Огбомо, Расмус Хардайкер, Уоллис Дэй, Аарон Пьер, Гордон Александр, Una Carroll

Описание:

В центре фантастического сериала — события, происходившие на родной планете мальчика с необычными способностями, который стал Суперменом. Действие разворачивается за несколько десятилетий до гибели планеты. Дед Супермена, всю жизнь веривший в равенство всех жителей планеты Криптон, решает вести непримиримую борьбу с беспорядками и очистить славное имя Элов…

Качество: WEBRip 720p
Формат: MKV

Видео: MPEG-4 AVC, ~ 4089 Кбит/с, 1280x720
Аудио#1: Русский (AC3, 6 ch, 640 Кбит/с)
Аудио#2: английский (AC3, 6 ch, 640 Кбит/с)
скриншот  скриншот  скриншот  

Общее
Уникальный идентификатор : 228475158051864700026661937005852864299 (0xABE2B700055B4177B03EFE01F733AF2B)
Полное имя : E:\Krypton.s01.HD720p.WEBRip.Rus.Eng.BaibaKo.tv\Krypton.s01e01.HD720p.WEBRip.Rus.Eng.BaibaKo.tv.mkv
Формат : Matroska
Версия формата : Version 4 / Version 2
Размер файла : 1,64 Гбайт
Продолжительность : 43 м. 50 с.
Общий поток : 5371 Кбит/сек
Дата кодирования : UTC 2018-03-22 22:35:24
Программа кодирования : mkvmerge v9.3.1 ('Mask Machine') 64bit
Библиотека кодирования : libebml v1.3.4 + libmatroska v1.4.5

Видео
Идентификатор : 1
Формат : AVC
Формат/Информация : Advanced Video Codec
Профиль формата : High@L4.1
Настройки формата : CABAC / 4 Ref Frames
Параметр CABAC формата : Да
Параметр RefFrames формата : 4 кадра
Идентификатор кодека : V_MPEG4/ISO/AVC
Продолжительность : 43 м. 50 с.
Битрейт : 4089 Кбит/сек
Ширина : 1280 пикселей
Высота : 720 пикселей
Соотношение сторон : 16:9
Режим частоты кадров : Постоянный
Частота кадров : 23,976 (24000/1001) кадра/сек
Цветовое пространство : YUV
Субдискретизация насыщенности : 4:2:0
Битовая глубина : 8 бит
Тип развёртки : Прогрессивная
Бит/(Пиксели*Кадры) : 0.185
Размер потока : 1,25 Гбайт (76%)
Default : Да
Forced : Нет

Аудио #1
Идентификатор : 2
Формат : AC-3
Формат/Информация : Audio Coding 3
Идентификатор кодека : A_AC3
Продолжительность : 43 м. 50 с.
Вид битрейта : Постоянный
Битрейт : 640 Кбит/сек
Каналы : 6 каналов
Расположение каналов : Front: L C R, Side: L R, LFE
Частота : 48,0 КГц
Частота кадров : 31,250 кадров/сек (1536 SPF)
Битовая глубина : 16 бит
Метод сжатия : С потерями
Размер потока : 201 Мбайт (12%)
Язык : Russian
ServiceKind/String : Complete Main
Default : Да
Forced : Нет

Аудио #2
Идентификатор : 3
Формат : AC-3
Формат/Информация : Audio Coding 3
Идентификатор кодека : A_AC3
Продолжительность : 43 м. 50 с.
Вид битрейта : Постоянный
Битрейт : 640 Кбит/сек
Каналы : 6 каналов
Расположение каналов : Front: L C R, Side: L R, LFE
Частота : 48,0 КГц
Частота кадров : 31,250 кадров/сек (1536 SPF)
Битовая глубина : 16 бит
Метод сжатия : С потерями
Размер потока : 201 Мбайт (12%)
Язык : English
ServiceKind/String : Complete Main
Default : Нет
Forced : Нет

Внимание! Раздача ведётся путём добавления новых серий; при каждом добавлении создаётся новый торрент. Чтобы начать докачку новой серии, пользователям необходимо сделать следующее:
(1) остановить скачивание,
(2) удалить старый торрент у себя из клиента (старые серии удалять не надо),
(3) скачать новый торрент и запустить его у себя в клиенте вместо старого, при этом указать клиенту путь в старую папку куда и должно происходить скачивание новых серий.
Ваш клиент при этом должен произвести хеширование (проверку) старой папки (если не производит сам - помогите ему сделать это), и будет докачивать только те серии которых у вас ещё нет. Старые серии при этом не удаляются, а продолжают раздаваться!
Eсли вы уже удалили старые серии, то предотвратить повторную закачку старых серий можно, отжав галочку в соответствующих местах при запуске нового торрента. По возможности, желательно не удалять старые серии как можно дольше чтобы релизёр не столько продолжал раздавать старые серии, а смог сконцентрироваться на новых.
pb.wtf



Скачать Криптон через торрент http://pic1.kartinco.top/images/11/rvcwh.jpg Скачать фильм Криптон через торрент бесплантно в хорошем качестве Описание:В центре фантастического сериала — события, происходившие на родной планете мальчика с необычными способностями, который стал ... 8.5 10 6
Info! Серебряная раздача, засчитывается только 50% скачанного.
Торрент: Зарегистрирован [2018-07-12 18:09] · скачан: 24 раз
Статус: √ проверено
Размер: 15.95 GB
Как cкачать? Как скачать Криптон через торрент | qTorrent

% Раздел Тема Автор DL S | L
Зарубежные сериалы [ 6.06 GB ] Криптон / Krypton / Сезон: 2 / Серии: 1-10 из 10 [2019 WEB-DLRip] DUB [Novamedia] bober100 Скачать
1 | 0
Зарубежные сериалы [ 28.05 GB ] Криптон / Krypton / Сезон: 2 / Серии: 1-10 из 10 [2019 WEB-DL 1080p] DUB [Novamedia] +MVO [Good People] bober100 Скачать
1 | 0
Зарубежные сериалы [ 26.9 GB ] Криптон / Krypton / Сезон: 2 / Серии: 1-10 из 10 [2019 WEB-DL 1080p] MVO [Lostfilm] bober100 Скачать
1 | 0
Зарубежные сериалы [ 6.06 GB ] Криптон / Krypton / Сезон: 2 / Серии: 1-10 из 10 [2019 WEB-DLRip] [MVO] killermax2013 Скачать
1 | 0
Зарубежные сериалы [ 7.26 GB ] Криптон / Krypton / Сезон: 2 / Серии: 1-10 из 10 [2019 WEBRip] MVO [TVShows] bober100 Скачать
1 | 0
Зарубежные сериалы [ 12.71 GB ] Криптон / Krypton / Сезон: 2 / Серии: 1-10 из 10 [2019 WEB-DL 720p] MVO [Lostfilm] bober100 Скачать
1 | 0
Зарубежные сериалы [ 28.06 GB ] Криптон / Krypton / Сезон: 2 / Серии: 1-10 из 10 [2019 WEB-DL 1080p] MVO [TVShows] bober100 Скачать
1 | 0


Последний раз редактировалось: bober100 (2018-07-12 18:09), всего редактировалось 4 раз(а)

28-11-2019 20:33  

Отключить всю рекламу на сайте

30-03-2018 07:01 Криптон Скачать торрент  

перестрелки, драки есть? или тупо говорят постоянноpb.wtf



25-04-2018 20:13 Криптон Скачать торрент  

откуда негры на криптоне?pb.wtf



25-04-2018 21:06 Криптон Скачать торрент  

Forceg911 писал(а):

откуда негры на криптоне?

Толерантность мсъе, толерантность.pb.wtf



    Дорогой пользователь! Огромная просьба, поблагодарите релизера, оцените раздачу и оставьте свои комментарий, если Вы скачали Криптон через торрент бесплатно! Внесите свою лепту в развитие PiratBit!
    Комментировать посты могут только пользователи прошедшие не сложную регистрацию
    Показать сообщения:    

    Криптон через торрент
    Скачать бесплатно Криптон
    Криптон скачать торрент
    Криптон смотреть онлайн
    Cкачать фильм Криптон бесплатно
    Криптон скачать торрент в хорошем качестве
    Криптон смотреть онлайн бесплатно в хорошем качестве


    Вы не можете начинать темы
    Вы не можете отвечать на сообщения
    Вы не можете редактировать свои сообщения
    Вы не можете удалять свои сообщения
    Вы не можете голосовать в опросах
    Вы не можете прикреплять файлы к сообщениям
    Вы можете скачивать файлы