Ссылка на приватное зеркало нашего сайта всего за 1$. Внимание количество ограничено!!!

2 сезон

iTunes

1 сезон

1

iTunes

iTunes

iTunes

1 сезон

RePack

30

ИГРА 18+

pack

ВАЖНО

!!Акция!!

Alien_RageХит недели

RePack

MK11
pack

Забери бонус

RePack

jed

!!Акция!!

Alien_Rage

RePack

fifa19

RePack

Assassins Creed: Odyssey

RePack

NEED FOR SPEED™ PAYBACK

4 сезон

9 сезон

Бесстыжие 9 сезон

Все сериалы

все сериалы на PB.wtf

RePack

FAR CRY 5
  

Улетный экипаж / Сезон: 1 / Серии: 1-21 из 21 (Марюс Вайсберг, Ольга Липатова) [2018, Комедия, WEB-DL 720p] pb.wtf

Улетный экипаж через торрент pb.wtf

Размер: 12.71 GB | Добавлен: 2 года 6 мес. назад | Торрент скачан:320 раз
Скачать  

23-03-2018 04:59 Улетный экипаж Скачать торрент  

Улетный экипажГод выпуска: 2018
Страна: Россия
Жанр: Комедия
Продолжительность: ~ 00:22:00
Субтитры: отсутствуют

Режиссер: Марюс Вайсберг, Ольга Липатова



В ролях:

Алексей Чадов, Наталья Бардо, Никита Тарасов, Юлия Топольницкая, Виктория Дайнеко, Яна Крайнова, Дарья Сагалова, Катрин Асси, Сергей Белов, Андрей Родной, Илья Рогов, Антон Чернов, Игорь Гаспарян, Артём Карасев, Алиса Лозовская

Описание:

«Девушка за штурвалом самолёта – что может быть хуже?» – думал пилот Лёша Кулагин, пока его страхи не оправдались. С помощью шантажа умница, красавица и лучшая в лётном училище Полина Овечкина уговаривает упрямого грубияна бросить грузовые самолёты, возглавить гражданский экипаж и взять её вторым пилотом. Просто Кулагин – единственный шанс Полины, наконец-то, отточить теоретические знания на практике. Ведь лётчики авиакомпании «Восторг Авиа» не готовы делить самолёт хоть и с профессионалом, но на каблуках. Пока она пытается подружиться с новым коллегой, Кулагин строит коварные планы, чтобы вернуть ненавистную соседку на землю.

Качество: WEB-DL 720p
Формат: MKV

Видео: MPEG-4 AVC, ~ 3494 Кбит/с, 1280x720
Аудио: AC3, 2 ch, 192 Кбит/с
скриншот   скриншот   скриншот  

Общее
Уникальный идентификатор : 191646586915400124130955805929195165499 (0x902DCA4095E9BBB7156B36DFD22BD73B)
Полное имя : E:\торреннты\Uletnyj.ekipaz.2018.WEB-DL.720.Files-x\01.Uletnyj.ekipaz.2018.WEB-DL.720.Files-x.mkv
Формат : Matroska
Версия формата : Version 2
Размер файла : 474 Мбайт
Продолжительность : 17 м. 36 с.
Общий поток : 3761 Кбит/сек
Программа кодирования : Lavf54.63.104
Библиотека кодирования : Lavf54.63.104

Видео
Идентификатор : 1
Формат : AVC
Формат/Информация : Advanced Video Codec
Профиль формата : High@L4.1
Настройки формата : CABAC / 5 Ref Frames
Параметр CABAC формата : Да
Параметр RefFrames формата : 5 кадров
Идентификатор кодека : V_MPEG4/ISO/AVC
Продолжительность : 17 м. 36 с.
Битрейт : 3494 Кбит/сек
Ширина : 1280 пикселей
Высота : 720 пикселей
Соотношение сторон : 16:9
Режим частоты кадров : Постоянный
Частота кадров : 25,000 кадров/сек
Цветовое пространство : YUV
Субдискретизация насыщенности : 4:2:0
Битовая глубина : 8 бит
Тип развёртки : Прогрессивная
Бит/(Пиксели*Кадры) : 0.152
Размер потока : 440 Мбайт (93%)
Default : Нет
Forced : Нет

Аудио
Идентификатор : 2
Формат : AC-3
Формат/Информация : Audio Coding 3
Идентификатор кодека : A_AC3
Продолжительность : 17 м. 36 с.
Вид битрейта : Постоянный
Битрейт : 192 Кбит/сек
Каналы : 2 канала
Расположение каналов : Front: L R
Частота : 44,1 КГц
Частота кадров : 28,711 кадров/сек (1536 SPF)
Битовая глубина : 16 бит
Метод сжатия : С потерями
Размер потока : 24,2 Мбайт (5%)
ServiceKind/String : Complete Main
Default : Да
Forced : Нет

Внимание! Раздача ведётся путём добавления новых серий; при каждом добавлении создётся новый торрент. Чтобы начать докачку новой серии, пользователям необходимо сделать следующее:
Остановить скачивание,
Удалить старый торрент у себя из клиента (старые серии удалять не надо),
Скачать новый торрент и запустить его у себя в клиенте вместо старого, при этом указать клиенту путь в старую папку куда и должно происходить скачивание новых серий.
Ваш клиент при этом должен произвести хеширование (проверку) старой папки (если не производит сам - помогите ему сделать это), и будет докачивать только те серии которых у вас ещё нет. Старые серии при этом не удаляются, а продолжают раздаваться!

Eсли вы уже удалили старые серии, то предотвратить повторную закачку старых серий можно, отжав галочку в соответсвующих местах при запуске нового торрента. По возможности, желательно не удалять старые серии как можно дольше чтобы релизёр не столько продолжал раздавать старые серии, а смог сконцентрироваться на новых.
pb.wtf



Скачать Улетный экипаж через торрент http://pic1.kartinco.top/images/11/nr11y.jpg Скачать фильм Улетный экипаж через торрент бесплантно в хорошем качестве Описание: «Девушка за штурвалом самолёта – что может быть хуже?» – думал пилот Лёша Кулагин, пока его страхи не оправдались. С помощью ... 9.3 10 23
Info! Золотая раздача, скачанное не засчитывается.
Торрент: Зарегистрирован [2018-04-16 16:25] · скачан: 320 раз
Статус: √ проверено
Размер: 12.71 GB
Как cкачать? Как скачать Улетный экипаж через торрент | qTorrent

% Раздел Тема Автор DL S | L
Наши сериалы [ 12.72 GB ] Улетный экипаж / Сезон: 2 / Серии: 1-21 из 21 [2018 WEB-DL 720p] bober100 Скачать
1 | 0
Наши сериалы [ 6.45 GB ] Улетный экипаж / Сезон: 2 / Серии: 1-21 из 21 [2018 WEB-DLRip] bober100 Скачать
1 | 0
Наши сериалы [ 6.25 GB ] Улетный экипаж / Сезон: 2 / Серии: 1-21 из 21 [2018 WEB-DLRip-AVC] bober100 Скачать
1 | 0
Наши сериалы [ 6.17 GB ] Улетный экипаж / Сезон: 1 / Серии 1-21 из 21 [2018 WEB-DLRip] GEKADOL Скачать
1 | 0
Наши сериалы [ 6.25 GB ] Улетный экипаж / Сезон: 1 / Серии: 1-21 из 21 [2018 WEB-DLRip-AVC] bober100 Скачать
1 | 0

28-11-2019 20:33  

Отключить всю рекламу на сайте

02-05-2018 15:28 Улетный экипаж Скачать торрент  

А в 1080 ожидается?)pb.wtf



    Дорогой пользователь! Огромная просьба, поблагодарите релизера, оцените раздачу и оставьте свои комментарий, если Вы скачали Улетный экипаж через торрент бесплатно! Внесите свою лепту в развитие PiratBit!
    Комментировать посты могут только пользователи прошедшие не сложную регистрацию
    Показать сообщения:    

    Улетный экипаж через торрент
    Скачать бесплатно Улетный экипаж
    Улетный экипаж скачать торрент
    Улетный экипаж смотреть онлайн
    Cкачать фильм Улетный экипаж бесплатно
    Улетный экипаж скачать торрент в хорошем качестве
    Улетный экипаж смотреть онлайн бесплатно в хорошем качестве


    Вы не можете начинать темы
    Вы не можете отвечать на сообщения
    Вы не можете редактировать свои сообщения
    Вы не можете удалять свои сообщения
    Вы не можете голосовать в опросах
    Вы не можете прикреплять файлы к сообщениям
    Вы можете скачивать файлы